<?xml version="1.0" standalone="no"?>
<!DOCTYPE svg PUBLIC "-//W3C//DTD SVG 1.1//EN" "http://www.w3.org/Graphics/SVG/1.1/DTD/svg11.dtd" >
<svg xmlns="http://www.w3.org/2000/svg" xmlns:xlink="http://www.w3.org/1999/xlink" version="1.1">
<metadata>
Created on Mon, 05-Apr-2021 12:57:19 PM
 By eDESIGNzone
Copyright (c) 2014 by ViJaY aHiRe. All rights reserved.
</metadata>
<defs>
<font id="vh-icons" horiz-adv-x="2048" vert-adv-y="2048" >
  <font-face 
    font-family="2110091806-vh-icons"
    font-weight="400"
    font-stretch="normal"
    units-per-em="2048"
    panose-1="0 0 0 0 0 0 0 0 0 0"
    ascent="1920"
    descent="-128"
    bbox="-184.508 -282 2745.98 1946"
    underline-thickness="102"
    underline-position="-307"
    unicode-range="U+0001-F4FF"
  />
    <missing-glyph />
    <glyph glyph-name="uni0001" horiz-adv-x="0" vert-adv-y="2046" 
d="M0 0v0v0v0z" />
    <glyph glyph-name="space" unicode=" " vert-adv-y="2046" 
 />
    <glyph glyph-name="home" unicode="&#xf000;" vert-adv-y="2046" 
d="M402 1732q-10 0 -19 8t-9 20v4q0 12 10 20t18 8h192q12 0 20 -8t8 -20v-4q0 -12 -8 -20t-20 -8h-192zM0 974l374 300v400q0 10 10 19t18 9h192q12 0 20 -9t8 -19v-204l402 322l1024 -818l-204 -168l-820 658l-820 -658zM384 762l640 520l640 -520v-762h-384v640
q0 104 -76 180t-180 76v0q-104 0 -180 -75t-76 -181v-640h-384v762z" />
    <glyph glyph-name="client" unicode="&#xf001;" vert-adv-y="0" 
d="M668 1220q-14 24 -24 50t-16 54q-4 2 -8 2t-6 2v8q0 189 106 288q116 108 206 136q108 34 158 34h10q22 -2 42 -2q125 0 154 -39q76 -69 82 -80q22 -41 -8 -61q2 -6 7 -6t7 -2q60 -20 68 -80q4 -24 4 -46q0 -34 -8 -66q-8 -52 -22 -99t-38 -91q-5 -12 -5 -25
q0 -20 -3 -25q-18 -30 -18 -111q0 -53 -34 -87q-18 -18 -44 -36t-54 -32q0.5 -42 0.5 -83t5.5 -57v-2l2 2q18 -16 47 -31t45 -19q78 -28 223 -61t179 -93q42 -78 58 -218q14 -124 14 -176v-18q0 -36 -71 -67q-49 -21 -175 -47q-64 -27 -247 -27q-184 0 -283 -9q-46 -4 -46 0
q-69 4 -245 4q-150 0 -256 32q-130 39 -175 64q-50 28 -50 70q0 14 4 24q39 100 39 197t57 171q36 46 161 92q137 50 223 62q34 4 55 17t33 33l4 8v0q4 20 4 65v89q-24 16 -43 32t-31 34q-30 44 -53 103t-35 123z" />
    <glyph glyph-name="setting" unicode="&#xf002;" vert-adv-y="2046" 
d="M254 514v0l64 64q6 8 16 6t16 -6l48 -34q6 4 16 8l20 8l10 58q0 8 6 15t16 7h92q8 0 15 -8t7 -14l10 -58q6 -4 18 -8t18 -8l48 34q10 6 19 6t13 -6l64 -64q8 -6 6 -16t-6 -16l-34 -48q4 -8 8 -19t8 -17l58 -10q8 -2 15 -9t7 -13v-92q0 -10 -8 -16t-14 -6l-58 -10
q-4 -8 -8 -19t-8 -17l34 -48q4 -8 5 -18t-5 -14l-64 -64q-6 -8 -16 -6t-16 6l-48 34q-8 -4 -19 -8t-17 -8l-10 -58q0 -8 -6 -15t-16 -7h-92q-12 0 -17 8t-5 14l-10 58l-20 8t-16 8l-48 -34q-8 -8 -18 -7t-14 7l-64 64q-10 6 -7 16t7 16l34 48q-4 8 -8 17t-6 19l-60 10
q-8 0 -15 6t-7 16v92q0 8 8 14t14 8l60 10q0 6 5 18t9 18l-34 48q-8 8 -7 18t7 14zM432 400v0q-34 -32 -34 -80t34 -80q32 -34 80 -34t80 34q34 32 34 80t-34 80q-32 34 -80 34t-80 -34zM494 1856v0h164q16 0 27 -12t15 -30l16 -104q18 -4 34 -11t32 -17l86 64q12 10 29 11
t29 -11l116 -118q12 -10 11 -27t-11 -31l-62 -84q8 -16 15 -33t11 -33l104 -16q16 -2 29 -13t13 -29v-164q0 -18 -12 -30t-30 -14l-104 -14q-2 -16 -11 -33t-15 -33l62 -86q12 -12 12 -29t-12 -29l-116 -116q-12 -12 -29 -11t-29 11l-86 62q-16 -8 -33 -15t-33 -11l-16 -104
q-6 -20 -15 -31t-27 -11h-164q-18 0 -28 12t-14 30l-18 104q-14 4 -31 12t-33 14l-84 -62q-14 -10 -32 -11t-30 11l-114 116q-12 12 -11 29t11 29l62 86q-8 16 -16 33t-12 33l-100 14q-20 4 -32 15t-12 29v164q0 18 13 28t31 14l100 16q10 16 16 33t12 33l-62 84
q-10 14 -11 31t11 27l114 118q14 12 31 11t31 -11l84 -64q16 12 32 18t32 10l18 104q2 20 13 31t29 11zM576 1486q-84 0 -145 -61t-61 -145q0 -86 61 -146t145 -60q86 0 146 61t60 145t-61 145t-145 61zM1390 1088v0h164q18 0 28 -13t14 -31l18 -102q14 -4 31 -11t33 -17
l84 64q14 10 32 11t30 -11l114 -118q12 -10 11 -27t-11 -31l-62 -84l16 -32t12 -32l102 -18q18 -2 30 -13t12 -29v-164q0 -18 -13 -29t-29 -13l-102 -16q-6 -18 -14 -34t-14 -32l62 -86q10 -12 11 -29t-11 -27l-114 -118q-14 -12 -31 -11t-31 11l-84 62q-16 -8 -32 -15
t-32 -11l-18 -104q-2 -20 -13 -31t-29 -11h-164q-16 0 -27 12t-15 30l-16 104q-18 2 -34 11t-32 15l-86 -62q-12 -12 -29 -12t-29 12l-116 118q-12 10 -11 27t11 29l62 86q-8 16 -15 33t-11 33l-104 16q-16 2 -29 13t-13 29v164q0 18 12 28t30 14l104 18q4 14 12 31t14 33
l-62 84q-12 14 -12 31t12 27l116 118q12 12 29 11t29 -11l86 -64q16 10 33 17t33 11l16 102q6 20 15 32t27 12zM1472 718q-84 0 -145 -61t-61 -145q0 -86 61 -146t145 -60q86 0 146 61t60 145t-61 145t-145 61z" />
    <glyph glyph-name="self_help" unicode="&#xf003;" vert-adv-y="2046" 
d="M1024 114h178q0 -48 -52 -81t-126 -33t-126 34t-52 80h178zM1024 1792q116 0 220 -40t181 -109t123 -162t46 -199q0 -124 -71 -229t-151 -175q-80 -68 -100 -130q-18.1818 -56.3636 -18.1818 -144.132q0 -8.77686 0.181818 -17.8678h-120v208l108 376q2 2 2 5t-6 5
l-12 10q-10 6 -23 25t-39 19q-18 0 -29 -9t-19 -21q-6 12 -17 21t-29 9t-28 -10q-12 -8 -18 -20q-6 12 -18 21t-28 9q-18 0 -27 -9t-19 -21q-6 12 -17 21t-31 9t-30 -10t-22 -24l-10 -10t-12 -10v0l-4 -4t-2 -4l110 -378v-208h-118q-2 98 -21 159t-99 133q-80 70 -151 154
t-71 250q0 84 46 174t123 165t181 123t220 48zM1074 586h-100v214v2v0l-100 360l10 10v0v-2q6 -14 18 -23t30 -9t26 8t20 22q6 -12 18 -20q8 -10 28 -10q18 0 27 8t19 22q2 -4 8 -10t8 -10q14 -10 31 -10t29 10q4 4 10 12t8 12l10 -10l-100 -358v-2v-2v-214zM786 486v8
q2 10 6 20t12 12h200l-158 -74q-16 -4 -32 1t-24 21q-2 2 -3 5t-1 7zM1262 220v-14q-2 -6 -7 -16t-11 -14h-200l158 74q16 6 32 0t24 -20q2 -2 2 -5t2 -5zM1262 374v-12q-2 -10 -8 -20t-16 -16l-326 -150h-126v10q2 10 8 19t16 15l392 184q16 6 32 1t24 -21q2 -2 2 -5t2 -5z
M1262 526v-14q-2 -6 -8 -17t-16 -13l-392 -182q-16 -6 -32 -1t-24 21q-6 14 -1 30t21 24l326 152h126z" />
    <glyph glyph-name="blab" unicode="&#xf004;" vert-adv-y="2046" 
d="M1024 1730q-188 0 -352 -65t-286 -176q-123 -112 -190 -259q-64 -140 -64 -301v-19q4 162 78 293t194 226t280 147q158 52 340 52t341 -52t279 -147t193 -226t79 -293v19q0.222222 8.44444 0.222222 16.8765q0 143.346 -64.2222 283.123q-69 150 -190 260
q-122 111 -286 176t-352 65zM1024 1792q190 0 358 -63t294 -170t197 -252t71 -313q0 -162 -69 -304t-188 -250t-279 -172q-162 -64 -344 -74h2q-116 -122 -260 -160q-124 -33 -313 -33q-31 0 -61 1q62 74 100 147t44 145v0q-106 50 -194 125t-149 165t-95 194t-34 216
q0 164 71 311t197 254t294 170t358 63zM994 1294q-32 0 -56 -10t-24 -26q0 -14 24 -25t56 -11t56 11t24 26t-23 25t-57 10zM1204 1524q-84 0 -147 -33t-63 -83t62 -83t148 -33t151 33t65 83t-65 83t-151 33zM526 78q44 0 146 28t176 70q36 22 23 40t-39 18h-12
q-4.4 -0.266667 -9.06667 -0.266667q-30.3333 0 -71.9333 11.2667q-50 14 -83 29q-6 4 -34 26t-30 24q28 -34 31 -50t-13 -54q-18 -44 -44 -85t-40 -57z" />
    <glyph glyph-name="report" unicode="&#xf005;" vert-adv-y="2046" 
d="M1787.43 1068q-24 110 -79 208t-132 173t-174 131t-207 80v-592h592zM1403.43 84v0q-84 -42 -182 -62q-98 -22 -198 -22q-192 0 -359 75t-289 202t-188 300q-58.8652 154.297 -58.8652 323.709q0 20.5342 0.865234 41.291q6 170 75 320t182 265t262 184t317 81v0v-240
v-236v-237v-237zM1805.43 842h114q-6 -116 -40 -217t-87 -191t-128 -166t-161 -130l-404 704h706zM1083.43 1792q166 -10 314 -79t262 -182t182 -261t78 -316h-836v838z" />
    <glyph glyph-name="online" unicode="&#xf006;" vert-adv-y="2046" 
d="M1241.14 1004q-14 -74 -18 -123q-1.59961 -19.5996 -1.59961 -42.2402q0 -33.96 3.59961 -74.7598q58 -2 72 -34t92 -60v0q24 -6 51 -16t53 -18q60 -20 116 -39t86 -44t55 -67t45 -92q26 -62 41 -125q10.7148 -45 10.7148 -72.1426q0 -10.8574 -1.71484 -18.8574
q-2 -20 -14 -36t-34 -32q2 12 4 23t2 25q0 116 -85 201t-203 85q-116 0 -201 -85t-85 -201q-0.285156 -6.28613 -0.285156 -12.4082q0 -36.7344 10.2852 -67.5918q12 -38 34 -74q-60 -2 -124 -3t-128 -1q-92 0 -186 2t-182 11t-164 21t-136 30q-52 16 -102 48t-50 90
q0 90 72 215t140 167q28 18 81 42t111 48q30 14 59 27t53 23q28 12 41 36t47 24q2 44 3 89q0.143555 6.42871 0.143555 12.8369q0 38.4492 -5.14355 76.1631q-4 6 -7 17t-7 23q26 -4 50 -8q22 -6 34 -10q2 -6 11 -13t23 -7t26 7t12 17q0 6 -12 14t-26 8q-10 0 -14 -1t-10 -3
q-12 2 -43 5t-59 11q-4 12 -10 23t-10 21q-16 32 -32 60t-30 60h-2q2 -32 9 -72t13 -60q4 -10 20 -19t40 -13l10 -20q-32 6 -62 16t-36 26q-6 26 -14 65t-8 73h-6q-20 -2 -38 10t-22 34l-22 124q-2 20 10 37t34 21h10q0 32 4 64t16 62q12 32 28 56t32 36q14 22 99 95t211 73
q132 0 220 -85t88 -87v-8q12 -14 22 -35t22 -45q6 -28 15 -60q6.23145 -22.1543 6.23145 -45.2666q0 -10.2715 -1.23145 -20.7334q20 -4 33 -19t9 -39l-20 -124q-4 -20 -21 -33t-39 -11l-36 4q-12 -20 -29 -42t-33 -46q-34 -50 -67 -132t-93 -98q-10 -2 -36 0t-54 2
q-28 0 -53 -3t-35 -1q-22 2 -40 10t-32 18q14 -20 36 -55t52 -39q6 -2 18 -1t24 1v0q24 2 36 3t38 -1q16 -2 29 -2t23 4q50 16 80 81t54 119zM1515.14 352q80 0 137 -57t57 -137t-56 -137t-138 -57q-80 0 -136 56t-56 138q0 80 55 137t137 57z" />
    <glyph glyph-name="billing" unicode="&#xf007;" vert-adv-y="2046" 
d="M1622 666q0 -58 -19 -112t-57 -100v0q-36 -50 -90 -85t-118 -55v0q-20 -6 -41 -14t-43 -12v-186q0 -44 -29 -73t-71 -29q-44 0 -72 30t-28 72v162h-60v-162q0 -44 -30 -73t-70 -29q-44 0 -72 30t-28 72v184q-62 14 -118 39t-106 65q-54 44 -99 110t-45 140q0 16 4 30
t12 28q14 26 38 46t52 30q26 6 57 8t57 -8q14 -2 27 -6t21 -16v0q20 -16 38 -37t32 -47v0q10 -22 22 -43t28 -39v0q14 -16 32 -28t38 -24v0q30 -12 64 -16t66 -4q50 0 99 10t87 34q26 14 42 35t16 49q0 10 -2 18t-4 14t-8 13t-12 15q-6 4 -19 13t-23 11q-12 4 -25 11t-29 11
v0q-16 4 -34 10t-42 10q-20 4 -46 9t-54 11v0q-36 6 -72 14t-68 18q-32 6 -63 16t-55 18v0q-28 10 -53 25l-45 27q-22 14 -43 31t-37 37q-34 42 -52 91t-18 103q0 84 43 153t117 115q36 24 84 41t96 29v186q0 44 29 72t71 28q44 0 72 -30t28 -70v-166h60v166q0 44 30 72
t70 28q44 0 72 -30t28 -70v-190q44 -14 88 -31t82 -45v0q16 -12 31 -24t29 -26q34 -32 56 -77t22 -93q0 -46 -31 -83t-73 -53q-26 -10 -60 -12q-32 -2 -58 5t-44 21t-34 36q-4 6 -16 20t-16 24q-6 14 -17 27t-19 25q-6 10 -18 19t-26 17v0q-10 6 -23 11t-33 11q-36 6 -90 6
t-94 -6q-18 -4 -34 -12t-30 -14v0q-14 -6 -23 -15l-17 -17q-10 -14 -8 -30t12 -28v0q10 -10 23 -19t27 -15q18 -6 36 -13t38 -13v0q24 -4 65 -14t69 -14v0q54 -10 110 -23t106 -29v0q44 -12 89 -30t85 -40v0q34 -20 66 -49t54 -65t33 -79t11 -89z" />
    <glyph glyph-name="channel" unicode="&#xf008;" vert-adv-y="2046" 
d="M1920 1792v-1792h-384v128h256v1536h-256v128h384zM866 778h252l72 266h-252zM730 1314l50 188q6 32 37 49t65 11l100 -28q32 -6 50 -37t10 -63l-30 -120h250l50 188q6 32 38 49t64 11l100 -28q34 -6 51 -37t9 -63l-30 -120h60q34 0 58 -23t24 -59v-102q0 -34 -24 -60
t-58 -26h-134l-72 -266h56q34 0 58 -26t24 -60v-102q0 -34 -25 -59t-57 -25h-128l-58 -216q-6 -32 -37 -49t-65 -7l-100 24q-32 6 -50 37t-10 69l38 142h-250l-58 -216q-6 -32 -38 -49t-64 -7l-100 24q-34 6 -51 37t-9 69l38 142h-68q-34 0 -58 25t-24 59v102q0 34 24 60
t58 26h142l72 266h-64q-34 0 -58 25t-24 61v102q0 34 25 58t57 24h136zM128 1792h384v-128h-256v-1536h256v-128h-384v1792z" />
    <glyph glyph-name="module" unicode="&#xf009;" vert-adv-y="2046" 
d="M2048 768l-242 128l32 128l-8 64l-126 220l8 48l192 -204zM432 384h1312l-76 -512h-1160zM1984 448h-1790l178 384h1420zM1232 1728h316l132 -192h-534l52 118zM1670 1472l-24 -128h-484l-36 100l12 28h532zM626 1920h462l80 -192h-654zM496 1486v178h644l-86 -192h-548z
M1742 896h-606l36 128h602zM1142 1152l-68 -256h-652l-50 256h770zM1138 1216h-754l140 192h566l-6 -18zM1764 1088h-576l26 94l-32 98h472zM460 1462v-50l-146 -206l-6 -54l48 -256l-356 -128l268 588z" />
    <glyph glyph-name="diagnostic" unicode="&#xf00a;" vert-adv-y="2046" 
d="M1920 896v-652q0 -48 -33 -82t-81 -34h-1564q-46 0 -80 33t-34 83v652q134 -74 272 -124t274 -78v-60q0 -14 10 -27t26 -13h204v-200q0 -14 10 -27t26 -13h148q14 0 25 10t11 30v200h204q14 0 25 10t11 30v60q134 28 273 78t273 124zM1864 1292q26 -14 41 -42t15 -62
v-270q-134 -68 -272 -116t-274 -78v54q0 14 -10 26t-26 12h-204v202q0 14 -10 25t-26 11h-148q-14 0 -25 -10t-11 -26v-202h-204q-14 0 -25 -11t-11 -27v-58q-134 26 -272 75t-274 123v270q0 32 15 59t41 45q6 2 15 3t19 1h458v-2h-2q0 -6 26 -13t66 -7q34 0 61 5t27 15v0
l-2 2h342v-2v0q0 -6 25 -13t61 -7t64 5t28 15q0 2 -3 1t-3 1h464h17t17 -4zM724 1294v86q0 32 19 60t45 50q28 20 63 33t67 13h212q30 0 66 -11t64 -35q28 -20 46 -48t18 -62v-86h-90v86q0 6 -7 16t-21 18q-18 14 -39 22t-37 8h-212q-16 0 -38 -8t-38 -22q-12 -6 -20 -16
t-8 -18v-86h-90z" />
    <glyph glyph-name="backup" unicode="&#xf00b;" vert-adv-y="2046" 
d="M1642 1196v-578h238l-496 -618l-492 618h238v578h512zM1304 1494v-232h-244v-242q-68 -20 -150 -30t-174 -10q-116 0 -220 17t-181 49t-122 74t-45 86v288q36 -24 92 -50t130 -50q70 -20 156 -33t190 -13q102 0 188 13t158 33q74 22 130 49t92 51zM736 924q98 0 179 11
t145 29v-300h-264l34 -44l56 -70q-36 -4 -75 -6t-75 -2q-118 0 -221 18t-180 49t-122 73t-45 90v300q52 -38 192 -93t376 -55zM168 686q18 -74 113 -118t215 -67t240 -24t184 15l244 -308q-78 -36 -189 -57t-239 -21q-118 0 -221 18t-180 49t-122 72t-45 89v352zM736 1792
q114 0 216 -17t178 -47t123 -69t51 -85q-36 -26 -95 -54t-131 -50q-68 -20 -154 -34t-188 -14t-187 12t-155 36q-74 22 -130 49t-96 53q4 46 51 86t123 70t178 47t216 17z" />
    <glyph glyph-name="license" unicode="&#xf00c;" vert-adv-y="2046" 
d="M1504 576h160v-64h-160v64zM1344 576h64v-64h-64v64zM964 576h60v-64h-60v64zM512 576h128v-64h-128v64zM384 576h60v-64h-60v64zM1504 896h160v-256h-160v256zM1344 896h64v-256h-64v256zM1220 896h60v-384h-60v384zM1088 896h64v-384h-64v384zM964 896h60v-256h-60v256
zM772 896h152v-384h-152v384zM512 896h128v-256h-128v256zM384 896h60v-256h-60v256zM1188 1152l172 -64l304 192v-128l-300 -192l-176 64v128zM384 1280h700v-128h-700v128zM384 1408q-52 0 -90 -38t-38 -90v-768q0 -52 38 -90t90 -38h1280q52 0 90 38t38 90v768
q0 52 -38 90t-90 38h-1280zM384 1536h1280q104 0 180 -75t76 -181v-768q0 -104 -74 -180t-182 -76h-1280q-104 0 -180 74t-76 182v768q0 104 75 180t181 76z" />
    <glyph glyph-name="domain" unicode="&#xf00d;" vert-adv-y="2046" 
d="M1024 1792q186 0 349 -71t284 -192t192 -283t71 -350q0 -186 -71 -349t-192 -284t-284 -192t-349 -71t-349 71t-284 192t-192 284t-71 349t71 349t192 284t284 192t349 71zM1586 1526l-16 -4q2 -4 2 -11v-13q-16 6 -34 14t-34 14l-10 -15t-10 -19q4 -4 7 -11t7 -13
q-16 14 -35 27t-35 27q4 6 8 16l8 20l20 8l20 8q-4 4 -8 10l-8 12q-6 -4 -17 -9t-21 -13q-4 -10 -11 -21t-13 -21l24 -28t24 -30q-12 2 -26 5t-24 5l-33 -33t-37 -33q-6 10 -13 19t-17 21q10 -2 20 -3t22 -3q2 6 5 14t7 20q-26 6 -52 17t-54 21q-16 -4 -32 -9t-34 -9
q-14 -28 -28 -57t-32 -57v-24t-2 -24q10 2 22 4t22 6q2 -6 4 -16t6 -16q10 2 18 5t20 7v20v20q-2 4 -7 8t-7 8q6 16 15 31t17 33q4 -4 9 -11t9 -13q-4 -6 -11 -14t-15 -14q4 -6 6 -16t10 -22q10 4 19 9t19 9q2 -4 4 -10t10 -8q-14 -6 -30 -14l-32 -16q-2 -4 -2 -12v-12
q-14 0 -29 -1t-31 -1q-2 4 -5 11t-11 13q-2 -2 -6 -5t-8 -5q2 -6 4 -15t6 -21q-6 -10 -16 -19t-18 -19q-4 -2 -9 -3t-9 -1l-15 -15t-17 -19q4 -4 11 -10t9 -16q-2 -4 -3 -12t-9 -18q-12 0 -24 2t-24 6q4 -24 12 -50q6 -26 16 -48q18 22 35 46t35 44q2 -2 6 -4l8 -4
q4 4 10 11t10 15q10 -10 20 -19t20 -19q2 -14 4 -27t2 -23q4 10 11 20t13 20q-6 16 -16 32t-18 32q2 2 3 4l3 6q10 -16 21 -33t23 -31q2 -12 3 -26t3 -24l24 -24l-26 -6l-4 2l-2 -10q-10 -2 -23 -5t-21 -7l-28 10q0 4 1 12t1 12q-2 6 -6 13t-12 13q-14 -2 -29 -4t-31 -4
l-96 -112q-94 -26 -191 -46t-193 -34l-32 18q-2 -4 -2 -10t-2 -12l4 -4q-24 -2 -49 -5t-49 -5v16t2 20q-4 2 -7 7t-5 7q-4 -4 -12 -10t-12 -10h-4h-4q-4 6 -12 15t-14 17q4 14 11 30t15 34h28h32q4 -6 8 -17t6 -23h11h11l-4 28t-6 28q10 12 21 25t25 25q-2 6 -3 15t-1 19
q4 4 9 11t9 11h10t8 -2q0 12 1 22t3 24q26 20 53 41t55 43q-14 30 -29 58t-27 54q-20 2 -39 6t-41 8q-2 -14 -5 -29t-7 -25q2 -2 3 -6t3 -8q-4 -14 -10 -28t-12 -30q-4 14 -12 28t-14 26l-15 5t-19 11q-2 4 -6 8l-8 8q6 14 17 27t19 27h27h27v14v20q4 10 10 20t10 20
q4 0 11 1t13 1q-4 -14 -12 -28t-10 -30q14 -2 31 -4t35 -4q10 14 22 27t24 29q-20 28 -40 55t-38 53q30 32 59 63t57 63l-16 -6q-2 0 -5 -1t-7 -1v0q-98 -36 -181 -98t-151 -140l6 -8h-14q-44 -50 -77 -107t-59 -117q2 2 5 2t9 2q2 -14 6 -26t8 -26q-4 -18 -8 -37t-8 -37
q16 -36 34 -75t38 -79h14h16q6 -10 13 -22t13 -22l32 -26q-54 -4 -110 -7t-110 -7h-5h-7q2 -14 3 -26t3 -26q204 2 417 31t419 85t403 136t375 180q-34 84 -89 158t-123 134zM340 398q78 0 156 4t150 14q4 -34 8 -52l4 -16q6 -24 15 -48t17 -44q14 -14 27 -28t27 -26
q2 4 3 7t3 5q-4 6 -12 15t-14 15q2 4 4 11t6 11q-2 10 -6 21t-10 21q14 30 30 61t36 65q98 14 196 36t194 52q6 -34 14 -70t16 -70q12 0 25 -1t25 -1q20 26 39 54t39 56q2 10 4 22t4 20q6 4 14 13t18 15l2 24q94 34 186 74t184 86l20 -40t20 -44q12 -2 24 -3t26 -3q2 4 1 10
t1 10q-10 4 -20 10t-20 10v20t-2 24h-9t-9 2v9v13h2q4 -2 8 -5t10 -3q2 4 5 8t7 8l-4 4q14 6 27 14t29 16q2 0 3 1t3 1q2 20 3 42t1 46q-182 -108 -372 -190t-387 -136t-401 -79t-416 -23q10 -16 22 -34t24 -34zM1302 1070l-18 -6q-2 12 -3 25t-3 25q4 -10 12 -21t12 -23z
M1844 698q4 24 10 48t10 48l-36 -44q-2 -10 -5 -22t-9 -22q6 -2 15 -4t15 -4zM962 1740q-50 -12 -99 -24t-101 -30q-20 -20 -39 -42t-39 -44q2 -6 3 -13t3 -15q6 4 16 9l18 9q4 -6 11 -13l13 -13q-2 -26 -3 -53t-3 -55q6 -20 14 -41t16 -41h16h18q4 16 13 32t15 32
q20 6 41 16t43 20q14 26 28 51t28 49q2 20 4 41t6 43l14 14t16 20l-24 24l-24 24v0h-2h-2zM1104 1292q-6 4 -13 11t-17 15q-2 6 -5 17t-7 21q-4 -4 -10 -13l-10 -15q6 -6 13 -17t15 -19q-2 -6 -5 -17t-7 -21h21h21q2 6 2 17t2 21zM1020 1438q-6 6 -12 14t-14 16
q-14 -4 -27 -9t-33 -13q6 -14 15 -28t15 -32q14 14 28 26t28 26zM1196 1084q-2 6 -4 15t-4 19q-2 -4 -5 -12t-9 -14q4 -2 11 -3t11 -5zM1046 1276q-4 6 -8 17t-12 21q-4 -10 -9 -21t-9 -19q4 -4 10 -12t12 -14q4 4 8 13t8 15zM1436 582q-2 2 -5 4t-7 6q-10 -6 -21 -18
t-21 -20q-4 -12 -7 -26t-11 -26q6 -6 15 -14t15 -14q10 26 21 53t21 55zM580 942q-4 12 -11 23t-13 23v-15v-13q4 -4 12 -9t12 -9zM562 924q-12 4 -23 10t-25 10q-2 -6 -1 -13t-1 -19q10 -2 22 -6t22 -8q2 6 3 14t3 12zM1394 1140q-26 4 -40 6l-14 2h-10h-8l-11 -11l-13 -13
q-2 6 -3 14t-1 16q4 10 10 22t10 22q4 -4 9 -12t9 -14h9t9 2q0 4 -1 10t-1 12q4 -2 10 -2t8 -4q4 -12 13 -25t15 -25zM814 612l4 -12t4 -10l5 -5t7 -5q2 -2 7 -3t11 1q4 0 8 2t8 6q2 2 4 5t2 11q0 4 1 8t1 14l10 160v10v10q-2 4 -3 7t-5 7q-2 2 -7 3t-9 1q-4 -2 -7 -3t-5 -5
q-2 -2 -4 -6t-2 -6v-7v-9l-10 -140l-52 120q-4 6 -6 11t-6 9q-2 2 -4 5t-4 7q-4 2 -10 3t-12 -1q-4 -2 -9 -3t-7 -3q-2 -4 -4 -9t-4 -11q0 -2 -1 -6t-1 -14l-12 -130l-52 128q-2 6 -5 12t-7 10q-2 2 -7 4t-11 0q-4 0 -8 -2t-8 -6q-2 -4 -2 -9t2 -7v-8t4 -12l64 -146
q2 -2 2 -6t8 -8q2 -4 2 -7t4 -5l4 -4t6 -4q2 -2 6 -1t10 1q4 0 7 2t5 6q2 2 5 7t5 7v8t2 12l14 144zM1126 682l8 -12t8 -10q2 -2 5 -4t7 -6q2 -2 7 -3t11 3l8 4t6 6q2 2 5 6t3 8v10v14l-4 160q-2 6 -2 11v9q-2 4 -4 6t-6 10q-4 2 -9 2t-7 -2q-4 -2 -8 -3t-6 -7q-2 -2 -3 -4
t-1 -6v-7v-13l6 -136l-64 114q-4 4 -8 10t-6 10q-2 2 -5 4t-7 4q-2 2 -8 3t-10 -1t-9 -5t-7 -5q-2 -4 -4 -7t-2 -11q-2 -2 -2 -7v-13v-130l-64 120q-2 4 -5 11t-7 11q-4 2 -9 4t-9 0l-8 -4t-8 -6q-2 -4 -2 -9v-7q2 -2 4 -8l4 -12l78 -140q2 -2 4 -5t6 -5q2 -4 3 -8t5 -6
q2 -2 3 -4t7 -4h6t9 1t7 4t8 7q2 2 4 6t2 8v9v13l2 144zM1438 786l9 -9t7 -9q2 -2 4 -3l6 -3t9 -4t11 4q4 2 7 4t7 6q2 2 3 6t1 8q-2 4 -2 10v14l-16 156q0 6 -1 13t-5 11l-4 8t-6 6t-9 1t-7 -1l-6 -6l-6 -6t-3 -5t-1 -7q0 -2 1 -8t1 -8l18 -138l-74 108q-4 4 -7 9t-9 11
q-2 2 -5 3t-7 3t-9 2t-10 -2t-8 -4t-5 -8q-2 -2 -5 -8t-3 -8v-8v-14l14 -130l-74 116q-4 4 -7 10t-9 8q-2 2 -8 5t-12 -1l-5 -5t-9 -7q-2 -2 -1 -7t1 -9q2 -2 6 -7t6 -9l90 -134q2 -2 3 -6t5 -10q2 -2 5 -4t5 -4t5 -4t5 -2h7t9 4q4 2 8 3t6 5t2 8v8v8v16l-10 142z" />
    <glyph glyph-name="department" unicode="&#xf00e;" vert-adv-y="2046" 
d="M756 1792h536q32 0 56 -24t24 -56v-450q0 -34 -24 -57t-56 -23h-140v-224h472q28 0 49 -22t21 -50v-294h148q34 0 56 -24t22 -56v-434q0 -32 -23 -55t-55 -23h-488q-32 0 -55 23t-23 55v434q0 34 23 57t55 23h148v170q0 20 -14 34t-34 14h-860q-20 0 -34 -14t-14 -34
v-170h148q32 0 55 -24t23 -56v-434q0 -32 -23 -55t-55 -23h-488q-34 0 -56 23t-22 55v434q0 34 23 57t55 23h148v294q0 28 21 50t49 22h472v224h-140q-32 0 -56 24t-24 56v450q0 34 24 57t56 23zM794 1744q-28 0 -49 -27t-23 -63q12 12 28 35t30 23h484q14 0 35 -23t27 -35
q-2 40 -23 65t-49 25h-460zM220 554q-28 0 -49 -28t-23 -64q10 12 27 36t31 24h484q14 0 35 -24t27 -36q-4 38 -23 65t-47 27h-462zM1366 554q-28 0 -48 -28t-22 -64q10 12 27 36t31 24h484q16 0 34 -24t28 -36q-6 38 -26 65t-46 27h-462zM434 934q-22 0 -40 -29t-20 -59
q10 8 23 28t25 20h1200q12 0 29 -21t23 -27q-4 30 -21 59t-39 29h-1180z" />
    <glyph glyph-name="ticket_status" unicode="&#xf00f;" vert-adv-y="2046" 
d="M1884 1458q18 -16 27 -37t9 -47v-1134q0 -46 -33 -79t-79 -33h-1568q-46 0 -79 33t-33 79v1134q0 24 9 46t27 38l526 -628l-542 -648h6l572 600l148 -170q60 -78 149 -77t151 75l148 172l258 -272q-16 -24 -26 -48t-10 -52q0 -64 48 -111t112 -47q26 0 49 9t43 23
l98 -102h6l-92 110q26 22 40 53t14 65q0 66 -47 113t-111 47q-28 0 -54 -10t-46 -26l-246 296l224 268q22 -26 55 -40t67 -14q62 0 110 47t48 111q0 44 -22 81t-56 57zM1704 964q-64 0 -112 -48t-48 -112t48 -111t112 -47q62 0 110 47t48 111q0 70 -47 115t-111 45z
M240 1484h1568q20 0 37 -6t31 -16l-110 -114q-14 4 -29 8t-33 4q-64 0 -112 -46t-48 -112q0 -20 4 -38t16 -34l-390 -404q-62 -64 -151 -64t-149 64l-702 736q14 10 31 16t37 6zM1704 510q42 0 71 -29t29 -71t-30 -69t-70 -27q-44 0 -72 28t-28 68q0 44 28 72t72 28z
M1704 906q42 0 71 -30t29 -72t-30 -69t-70 -27q-44 0 -72 29t-28 67q0 42 28 72t72 30zM1704 1300q42 0 71 -28t29 -70t-30 -70t-70 -28q-44 0 -72 30t-28 68q0 42 28 70t72 28z" />
    <glyph glyph-name="ticket_priority" unicode="&#xf010;" vert-adv-y="2046" 
d="M1714.12 902v0q-4 4 -10 8t-10 14q-4 4 -7 10t-5 13t-2 13v16q2 4 3 11t9 17v0h2l118 210l108 -430zM1366.12 1486l424 -242l-128 -224l-4 -6q-10 -20 -11 -39t3 -38t16 -36t32 -27l6 -4l210 -120l-356 -616q-10 -20 -31 -25t-37 5l-616 360l300 170l60 -178l272 48
l-102 62l238 410l-156 88l-48 -82l-206 356l68 118q10 18 29 24t37 -4zM1270.12 702l-22 -38l-20 12zM830.125 1442v0q-4 -2 -12 -5t-14 -3q-6 -2 -14 -1t-16 3q-6 2 -13 5t-11 11q-4 4 -9 8t-7 10v2h-4l-122 212l428 -122zM154.125 1434l420 242l126 -216v-2l2 -4
q12 -20 28 -33t36 -17q20 -6 40 -3t38 9v2h2l216 124l352 -612q12 -20 9 -41t-21 -31l-686 -394q-18 -10 -39 -5t-33 25l-510 886q-10 18 -4 41t24 29zM766.125 1040q16 -22 28 -37t24 -21q10 -8 22 -7t26 7q12 8 18 18t6 24q-4 14 -8 34q-6 16 -16 36l-114 248
q-8 18 -18 35t-16 31q-16 28 -31 47t-29 29q-16 8 -34 7t-38 -13q-16 -10 -27 -23t-15 -31q-2 -16 1 -33t15 -37q10 -20 24 -42t36 -54zM998.125 756q16 10 26 22t14 26q4 18 2 34t-12 32q-8 14 -21 24t-29 14t-33 1t-31 -9q-14 -10 -24 -22t-12 -28q-4 -16 -2 -32t8 -30
q12 -16 25 -27t29 -13t31 0t29 8z" />
    <glyph glyph-name="ticket_type" unicode="&#xf011;" vert-adv-y="2046" 
d="M1920 1344v-1104q0 -46 -33 -79t-79 -33h-1568q-46 0 -79 33t-33 79v1134q0 26 10 47t26 37l526 -628l-542 -648h6l572 600l148 -170q62 -74 151 -76t149 74l148 172l572 -600h6l-542 648l46 54q6 -14 16 -26l20 -24q32 -32 75 -49t89 -17t88 16t74 50q32 32 50 76t18 88
v24t-4 22h4v238v2v0l6 6t6 4q20 10 39 23t35 27zM240 1484h924v-80h234q-12 -32 -18 -64t-6 -66v-230h4q-2 -12 -3 -23t-1 -23q0 -14 1 -28t5 -28l-206 -216q-62 -64 -151 -64t-149 64l-702 736q14 10 31 16t37 6zM1920 1588q0 -52 -33 -99t-103 -87q-36 -20 -55 -50
t-19 -70v-114h-212v106q0 30 9 59t27 57q18 26 39 47t47 33q44 20 67 49t23 69q0 22 -7 41t-23 35q-14 14 -34 22t-42 8q-20 0 -39 -7t-34 -22t-23 -34t-8 -43v-64h-208v66q0 50 26 91t86 69q46 24 96 36t104 12t106 -12t98 -36q54 -30 83 -70t29 -92zM1710 998
q0 -22 -7 -41t-23 -34t-35 -22t-41 -7t-40 6t-32 24q-16 16 -25 34t-9 40t8 40t26 34q14 14 32 22t40 8t41 -7t35 -23q14 -14 22 -33t8 -41z" />
    <glyph glyph-name="ticket_level" unicode="&#xf012;" vert-adv-y="2046" 
d="M831 608q-10 -36 -15 -77t-5 -77q0 -88 24 -171t68 -157h-706q-46 0 -79 34t-33 78v1136q0 24 9 46t27 36l526 -628l-542 -648h6l572 602l148 -172v-2zM1877 934q-70 64 -159 104t-187 52l310 366q16 -16 26 -36t10 -46v-440zM861 698q-10 4 -17 12t-13 14l-702 736
q14 10 31 17t37 7h1568q20 0 37 -7t31 -17l-350 -366h-16h-16q-100 0 -190 -28t-168 -81t-138 -127t-94 -160zM1451 966q106 0 200 -40t163 -109t109 -163t40 -200q0 -104 -40 -198t-109 -163t-163 -108t-200 -39q-104 0 -197 39t-163 108t-110 162t-40 199q0 108 40 201
t110 162t162 109t198 40zM1641 516v-38q8 -4 15 -5t13 -3q10 -2 18 -3t18 -1t19 1t13 3q8 4 14 6t10 6q4 2 8 9t6 11q6 4 6 11v13q0 4 -1 9t-3 9q-6 4 -7 7t-3 5q-4 4 -7 5t-5 3h-7t-5 2q6 8 12 11t10 7q6 6 8 14t2 14t-1 12t-3 10q-4 2 -6 5t-6 5q-6 6 -13 8t-11 4t-13 2
h-15q-10 0 -18 -1t-14 -3q-10 0 -15 -4t-9 -6v-38h2q0 2 3 3t5 3q4 2 6 2h4q4 4 8 5t6 1q4 2 8 2h6h6h6t4 -1t4 -3q2 0 5 -1t5 -3q0 -4 1 -6t1 -4t-3 -6t-5 -6q0 -2 -1 -3l-3 -3q-4 -2 -7 -2h-5q-4 -2 -8 -2h-8h-8v-32h8h8h6q6 0 10 -1t6 -1q2 -2 5 -3t5 -3q2 -4 2 -7v-7v-8
t-2 -6q0 -2 -3 -3t-5 -3t-5 -3t-7 -3h-8h-6q-6 0 -13 1t-13 3q-6 4 -12 6t-10 4h-8zM1627 442v-76h248l-100 76h-148zM1395 724v-32h126v32h-40v160h-40q0 -4 -2 -6l-4 -4q-4 -6 -5 -7t-5 -3q-2 -2 -6 -3t-6 -1t-8 -1t-10 -1v-30h40v-104h-40zM1363 664l-58 -50h296l-58 50
h-180zM1141 596v-30h140v38h-80q2 2 6 4t8 6q4 6 11 12t11 10q12 8 17 18t9 16t6 16t2 16q0 14 -6 26t-12 16q-12 8 -23 13t-27 5q-8 0 -17 -3l-15 -5q-10 0 -16 -2t-10 -4v-40h6l2 2q0 2 2 4q4 0 7 1t5 3q4 2 7 2t5 2q4 2 7 2h5q10 0 15 -2t9 -6q4 -2 6 -9t2 -13
q0 -4 -2 -10t-4 -10q-6 -6 -10 -14t-8 -14q-8 -4 -15 -10t-11 -12q-10 -6 -18 -14zM1131 540l-100 -74h250v74h-150zM1875 192v148h-274v250h-296v-148h-274v-250h844z" />
    <glyph glyph-name="ticket_category" unicode="&#xf013;" vert-adv-y="2046" 
d="M1877 934q-70 64 -159 104t-187 52l310 366q16 -16 26 -36t10 -46v-440zM861 698q-10 4 -17 12t-13 14l-702 736q14 10 31 17t37 7h1568q20 0 37 -7t31 -17l-350 -366h-16h-16q-100 0 -190 -28t-168 -81t-138 -127t-94 -160zM831 608q-10 -36 -15 -77t-5 -77
q0 -88 24 -171t68 -157h-706q-46 0 -79 34t-33 78v1136q0 24 9 46t27 36l526 -628l-542 -648h6l572 602l148 -172v-2zM1451 966q106 0 200 -40t163 -109t109 -163t40 -200q0 -104 -40 -198t-109 -163t-163 -108t-200 -39q-104 0 -197 39t-163 108t-110 162t-40 199
q0 108 40 201t110 162t162 109t198 40zM1795 154q12 0 21 8t9 22v186q0 12 -9 21t-21 9h-62v128l-2 2v4v0v6l-2 2v2h-6v2h-2v2v0v2h-2l-2 4h-2h-2h-2v2h-228v94h64q12 0 21 10t9 22v184q0 14 -9 23t-21 9h-186q-14 0 -22 -9t-8 -23v-184q0 -14 9 -23t21 -9h60v-94h-222v-2
h-8v0h-2l-2 -4h-2v-2h-2v-2h-2v-2h-2v-2l-2 -2v-6h-2v-4l-2 -2v-128h-62q-12 0 -21 -9t-9 -21v-186q0 -14 9 -22t21 -8h186q14 0 24 8t10 22v186q0 12 -10 21t-24 9h-62v94h436v-94h-62q-14 0 -23 -9t-9 -21v-186q0 -14 9 -22t23 -8h186z" />
    <glyph glyph-name="ticket_time" unicode="&#xf014;" vert-adv-y="2046" 
d="M1877 934q-70 64 -159 104t-187 52l310 366q16 -16 26 -36t10 -46v-440zM861 698q-10 4 -17 12t-13 14l-702 736q14 10 31 17t37 7h1568q20 0 37 -7t31 -17l-350 -366h-16h-16q-100 0 -190 -28t-168 -81t-138 -127t-94 -160zM831 608q-10 -36 -15 -77t-5 -77
q0 -88 24 -171t68 -157h-706q-46 0 -79 34t-33 78v1136q0 24 9 46t27 36l526 -628l-542 -648h6l572 602l148 -172v-2zM1491 512l112 92l-92 -112q8 -8 10 -18t2 -20q0 -12 -6 -28t-16 -22q-8 -8 -19 -12t-25 -6l-10 -222l-6 224q-12 2 -23 6t-15 10q-8 12 -14 24t-6 26
q0 6 1 12t3 10l-148 132l172 -100q8 6 18 11t22 5t23 -4t17 -8zM1481 426q4 4 9 13t5 15q0 10 -5 18t-9 12q-4 6 -14 9t-16 3q-8 0 -16 -4t-12 -8q-4 -6 -8 -15t-4 -15q0 -8 4 -16t8 -12q6 -6 14 -9t14 -3q12 0 19 4t11 8zM1451 966q106 0 200 -40t163 -109t109 -163
t40 -200q0 -104 -40 -198t-109 -163t-163 -108t-200 -39q-104 0 -197 39t-163 108t-110 162t-40 199q0 108 40 201t110 162t162 109t198 40zM1707 214q44 46 67 101t27 119h-48v44h48q-4 64 -28 118t-66 98l-38 -36l-14 14l36 38q-42 42 -99 67t-121 27v-50h-44v50
q-64 -4 -118 -29t-98 -67l38 -36l-16 -14l-34 36q-42 -44 -67 -99t-27 -117h48v-44h-50q4 -62 29 -119t69 -101l30 30l18 -10l-34 -32q42 -42 96 -67t116 -29v50h44v-50q60 4 118 28t102 68l-32 32l14 12z" />
    <glyph glyph-name="ticket_time_1" unicode="&#xf015;" vert-adv-y="2046" 
d="M861 698q-10 4 -17 12t-13 14l-702 736q14 10 31 17t37 7h1568q20 0 37 -7t31 -17l-350 -366h-16h-16q-100 0 -190 -28t-168 -81t-138 -127t-94 -160zM831 608q-10 -36 -15 -77t-5 -77q0 -88 24 -171t68 -157h-706q-46 0 -79 34t-33 78v1136q0 24 9 46t27 36l526 -628
l-542 -648h6l572 602l148 -172v-2zM1451 966q106 0 200 -40t163 -109t109 -163t40 -200q0 -104 -40 -198t-109 -163t-163 -108t-200 -39q-104 0 -197 39t-163 108t-110 162t-40 199q0 108 40 201t110 162t162 109t198 40zM1787 806v10h-666v-32q0 -6 1 -11t5 -9q4 -8 10 -10
t10 -2h36l-16 -230q-4 -14 6 -22t22 -8t21 9t9 21l-16 230h12q4 -14 15 -30t13 -16h8q8 -12 13 -29t9 -33q2 -26 11 -50t29 -38q10 -6 18 -12t14 -10q26 -10 48 -27t26 -45q4 -34 -24 -56t-56 -36q-4 -4 -7 -4t-7 -2q-30 -18 -41 -46t-15 -56q-4 -18 -8 -32t-10 -26h-8
q-8 0 -8 -3t-2 -5l-18 -38h-12l16 232q0 12 -9 20t-21 8t-21 -8t-7 -20l16 -232h-36q-6 0 -12 -3t-8 -7q-4 -4 -5 -11t-1 -11v-30h666v30q0 6 -1 12t-5 10q-6 6 -11 8t-9 2h-38l18 232q0 12 -9 20t-21 8t-21 -8t-7 -20l14 -232h-12l-18 44q-2 2 -4 2h-4h-8q-10 10 -14 26
t-6 32q-6 28 -15 53t-29 39q-8 8 -18 12t-16 8q-24 14 -46 29t-26 45q-4 34 24 56t56 36q2 4 7 5t9 3q28 16 39 42t15 54q2 16 8 32t12 30h8q4 0 14 16t12 30h12l-14 -230q-2 -14 7 -22t21 -8q10 0 20 9t10 21l-18 230h38q4 0 11 4t9 8q2 2 4 9t2 11v22zM1743 454
q0 12 -9 21t-21 9q-14 0 -22 -9t-8 -21q0 -10 8 -19t22 -9q10 0 20 7t10 21zM1167 454q0 -14 9 -21t23 -7q10 0 19 7t9 21t-8 22t-20 8q-16 0 -24 -9t-8 -21zM1877 934q-70 64 -159 104t-187 52l310 366q16 -16 26 -36t10 -46v-440zM1291 646q-4 16 -10 31t-10 29h362
q-8 -14 -12 -30t-6 -30q-6 -26 -13 -49t-31 -35q-8 -4 -11 -5t-5 -3q-32 -16 -62 -41t-28 -61l-14 22l-10 -22q0 2 1 6t-1 6q-6 34 -30 52t-50 32q-10 6 -18 10t-14 8q-18 14 -26 35t-12 45zM1385 694h-41h-41q8 -84 58 -112t82 -90q0 52 -36 100t-22 102z" />
    <glyph glyph-name="ticket_time_2" unicode="&#xf016;" vert-adv-y="2046" 
d="M1157 672q4 0 4 -2v0q2 -2 2 -4v-4v-40v-5v-3v-4t-2 -4q0 -2 -2 -6t-4 -6q-4 0 -8 -1t-6 -1h-8t-6 2q-4 0 -4 4t-2 6t-2 3v3l-4 2v2q0 6 1 7t3 1l2 2h2h2l2 -2l2 -2v-2q0 -4 1 -5t1 -3v0l4 -4v0h4q6 0 9 4t3 10v42v5t2 3v0q2 2 4 2zM1155 154q-10 0 -17 8t-7 18v298h644
v-298q0 -10 -7 -18t-17 -8h-596zM1451 428v-124h176v124h-176zM1231 612v-4v-4q2 0 2 -3v-5h-2v-2l-2 -2h-4v2h-4v2q0 4 -4 6q-6 -6 -7 -6t-3 -2q-4 0 -5 -1t-3 -1q-8 0 -9 1t-3 1t-4 3t-2 5q-2 2 -2 3v3v6t2 4l5 5t5 1h4q4 0 6 2h3t3 2h6t4 2q-2 4 -3 5l-3 3q0 2 -2 2h-4
h-3h-3q-4 -2 -5 -3l-3 -3v0v-4h-2h-2q-2 0 -2 2t-2 2h-2v2v3t2 3t4 2t4 2q4 4 8 4h6q4 0 9 -1t7 -3t4 -2t2 -2q4 -4 4 -8v-6v-4v-4t1 -4t-1 -4zM1217 620v2q-2 -2 -5 -2t-5 -2q-4 0 -4 -1t-2 -3q-2 0 -4 1t-2 -1q-4 0 -4 -1v-3t1 -3l3 -3h4h2q4 0 5 -1t3 1t3 2t3 2q0 2 1 5
t1 7zM1877 934q-70 64 -159 104t-187 52l310 366q16 -16 26 -36t10 -46v-440zM861 698q-10 4 -17 12t-13 14l-702 736q14 10 31 17t37 7h1568q20 0 37 -7t31 -17l-350 -366h-16h-16q-100 0 -190 -28t-168 -81t-138 -127t-94 -160zM831 608q-10 -36 -15 -77t-5 -77
q0 -88 24 -171t68 -157h-706q-46 0 -79 34t-33 78v1136q0 24 9 46t27 36l526 -628l-542 -648h6l572 602l148 -172v-2zM1351 650q2 0 3 -1t1 -3l4 -2v-2v-40q0 -6 -2 -8h-2h-2q0 -2 -2 -2t-3 1t-3 1v2q0 4 -2 6v2q0 -2 -1 -5t-3 -3q-2 -2 -3 -2h-3t-5 -1t-5 -1h-4t-4 2
q-2 0 -2 3t-2 5q-4 2 -4 5v7v28q0 2 1 2t3 2v4h2q2 0 3 -1l3 -3l2 -2v-2v-22v-7v-3v-3t2 -1l6 -2h2h3t3 2l3 3t1 3q2 2 2 5v7v18v2l2 2q2 4 3 4h3zM1761 780q22 0 36 -17t14 -37v-12q0 22 -15 38t-35 16h-614q-22 0 -37 -16t-15 -38v12q0 24 16 39t36 15h614zM1525 650l2 -4
v0q0 -2 1 -1t1 -1l-2 -2v-4v0l-20 -48q0 -4 -1 -6t-3 -4q-2 -4 -3 -4t-3 -2h-4h-4h-9h-3t-2 1v3v2l2 2l2 2h2v0v-2h2h7t1 2v0v2q2 0 2 2t2 4v2l-18 44v3v3v0q0 2 1 3t1 3h2v0q2 0 5 -1t3 -3q2 0 1 -1t1 -3l12 -34l10 32q2 4 3 4h3v4t2 2v0h2h2zM1451 966q106 0 200 -40
t163 -109t109 -163t40 -200q0 -104 -40 -198t-109 -163t-163 -108t-200 -39q-104 0 -197 39t-163 108t-110 162t-40 199q0 108 40 201t110 162t162 109t198 40zM1825 162v362h-744v-362q0 -22 15 -37t35 -15h640q24 0 39 16t15 36zM1081 538h744v210q0 22 -17 37t-37 15
h-640q-20 0 -35 -16t-15 -36v-210zM1461 650q2 0 5 -1t5 -3q0 -2 1 -2t1 -2v-2l-2 -2q0 -2 -1 -2h-3v0q-2 0 -4 2h-2h-2h-4t-4 -2v-2v0q-2 -4 -2 -6v-4v-5v-5v-10q0 -8 -1 -8t-1 -2q-2 0 -3 -1t-3 -1l-2 2v0q-4 0 -4 4v6v36q0 4 2 7t4 3t3 -1l3 -3v-2v-2l2 2l2 2q4 4 6 4h4z
M1419 612q0 -2 1 -4t1 -4q2 0 2 -3v-5h-2v-2q-2 0 -3 -1t-3 -1v2h-4v2q0 4 -2 6q-8 -6 -9 -6t-3 -2q-4 0 -6 -1t-4 -1q-4 0 -6 1t-4 1t-4 3t-2 5q-2 2 -2 3v3v6t2 4q4 4 6 5t6 1h2q4 0 6 2h3t3 2h7t5 2q-6 4 -6 5t-2 3q0 2 -2 2h-4h-4h-4q-2 -2 -2 -3t-2 -3h-2v-4h-2h-2
q-2 0 -3 2t-3 2v0v2q0 2 -1 3t1 3q4 2 6 2t4 2q4 4 8 4h6q4 0 9 -1t7 -3t4 -2t2 -2q2 -4 3 -8t1 -6v-4v-4v-4t-2 -4zM1409 620v2q-6 -2 -8 -2t-4 -2q-4 0 -4 -1t-2 -3q-4 0 -5 1t-1 -1q-2 0 -2 -1v-3v-3t2 -3h3h3q4 0 5 -1t3 1l2 2l2 2q0 2 3 5t3 7zM1285 646l4 -2l2 -2
q0 -2 1 -3l3 -3v-4v-4v-24q0 -8 -2 -8t-2 -2l-2 -2h-2h-3t-1 2q-2 0 -2 4v6v22v6v4q-2 2 -5 3t-5 1t-4 -1t-4 -1q-2 -2 -2 -4t-2 -4v-5v-5v-16q0 -8 -1 -8t-1 -2q-2 0 -3 -1t-3 -1h-2q-4 0 -6 2v4v6v38v4v0l6 4h2h2l2 -4l2 -2v0v-2v-2q2 4 4 4t4 2q4 4 6 4h4q6 0 7 -1z" />
    <glyph glyph-name="ticket_setting" unicode="&#xf017;" vert-adv-y="2046" 
d="M861 698q-10 4 -17 12t-13 14l-702 736q14 10 31 17t37 7h1568q20 0 37 -7t31 -17l-350 -366h-16h-16q-100 0 -190 -28t-168 -81t-138 -127t-94 -160zM1877 934q-70 64 -159 104t-187 52l310 366q16 -16 26 -36t10 -46v-440zM831 608q-10 -36 -15 -77t-5 -77
q0 -88 24 -171t68 -157h-706q-46 0 -79 34t-33 78v1136q0 24 9 46t27 36l526 -628l-542 -648h6l572 602l148 -172v-2zM1451 966q106 0 200 -40t163 -109t109 -163t40 -200q0 -104 -40 -198t-109 -163t-163 -108t-200 -39q-104 0 -197 39t-163 108t-110 162t-40 199
q0 108 40 201t110 162t162 109t198 40zM1891 352l10 82q2 16 -6 29t-20 17l-24 -2q-16 -2 -31 5t-19 23l-18 74q-2 14 7 29t23 19l20 10q10 12 10 27t-10 27l-48 62q-10 14 -24 17t-28 -1l-14 -18q-8 -12 -24 -16t-30 2l-64 40q-18 8 -19 24t3 30l8 22q-2 14 -13 26t-25 14
l-80 8q-16 2 -29 -5t-17 -21l2 -22q0 -16 -7 -31t-23 -19l-70 -18q-18 -4 -31 5t-19 23l-12 20q-10 10 -25 8t-27 -8l-66 -48q-12 -12 -14 -24t2 -26l16 -14q16 -12 19 -27t-3 -29l-40 -64q-10 -16 -25 -18t-29 2l-22 8q-14 -2 -25 -12t-13 -24l-14 -82q-2 -16 7 -29t21 -17
l24 2q16 2 30 -5t18 -23l20 -74q2 -16 -7 -29t-23 -17l-20 -12q-10 -10 -10 -25t10 -27l48 -66q10 -12 24 -15t28 1l14 18q12 12 26 16t28 -2l66 -38q14 -10 16 -26t-2 -30l-8 -24q2 -10 13 -22t25 -14l80 -12q16 -2 29 6t17 22l-2 20q-2 20 6 34t24 18l72 18q16 4 30 -5
t20 -23l8 -20q14 -12 28 -10t26 8l66 50q12 10 14 23t-2 27l-16 16q-14 12 -17 26t3 28l38 66q10 14 25 16t29 -2l22 -8q16 2 27 12t13 24zM1481 654q82 -12 132 -78t40 -148q-12 -82 -79 -133t-149 -39t-132 79t-40 149q12 80 79 131t149 39z" />
    <glyph glyph-name="label" unicode="&#xf018;" vert-adv-y="2046" 
d="M466.069 1792q-54 -144 6 -293t202 -215l1246 -580l-492 -180l176 -492l-1240 580q-76 34 -130 95t-81 134t-25 155t36 158l300 638h2zM610.069 1146l474 -220q12 -4 24 -1t16 15t2 24q-4 12 -16 20l-472 220h-2q-36 20 -72 47t-64 63q-26 34 -46 75t-26 85q-2 12 -13 20
t-25 6q-12 -2 -19 -14t-7 -22q10 -52 31 -101t55 -89q32 -42 72 -74t88 -54zM1252.07 750l-718 334q-36 18 -78 3t-60 -53l-70 -148q-18 -42 -2 -81t56 -59l714 -332q36 -20 80 -5t60 55l70 144q18 42 4 82t-56 60z" />
    <glyph glyph-name="flag" unicode="&#xf019;" vert-adv-y="2046" 
d="M333.786 1494q48 76 132 153t180 117t190 21t158 -125v0q2 -4 6 -9q4 -5 6 -7q34 -80 71 -163t75 -167q58 20 123 55t125 82t106 105t68 126q34 -84 80 -186t93 -205t92 -204t81 -185q-22 -78 -107 -172t-191 -150t-216 -51t-184 129v0q-2 4 -4 10t-4 8q-34 80 -72 163
t-76 165q-98 -32 -210 -106t-174 -180l320 -718h-148l-672 1510q-16 2 -30 9t-20 23q-10 24 8 54t54 48t73 11t47 -33q4 -14 2 -28t-12 -30z" />
    <glyph glyph-name="flag_empty" unicode="&#xf01a;" vert-adv-y="2046" 
d="M333.786 1494q48 76 132 153t180 117t190 21t158 -125v0q2 -4 6 -9q4 -5 6 -7q34 -80 71 -163t75 -167q58 20 123 55t125 82t106 105t68 126q34 -84 80 -186t93 -205t92 -204t81 -185q-22 -78 -107 -172t-191 -150t-216 -51t-184 129v0q-2 4 -4 10t-4 8q-34 80 -72 163
t-76 165q-98 -32 -210 -106t-174 -180l320 -718h-148l-672 1510q-16 2 -30 9t-20 23q-10 24 8 54t54 48t73 11t47 -33q4 -14 2 -28t-12 -30zM1243.79 774q20 54 35 102t-47 138q-6 12 -34 14t-68 -6zM367.786 1420q34 -78 70 -157t71 -158l70 -158t67 -157q26 36 60 70
t68 62q46 36 173 103q127 67 227 69q-54 128 -112 259t-116 261q-54 102 -140 109t-174 -37t-162 -121t-102 -145zM1845.79 900q-34 78 -68 157t-69 158l-70 158t-71 153q-26 -34 -60 -67t-66 -61q-32 -26 -106 -70t-156 -74q32 -78 68 -157t74 -163q26 -62 -6 -103t-62 -87
l20 -36q54 -102 139 -110t173 38t160 121t100 143z" />
    <glyph glyph-name="flag_inner" unicode="&#xf01b;" vert-adv-y="2046" 
d="M1763 900q-28 -68 -100 -143t-160 -121t-173 -38t-139 110l-20 36q30 46 62 87t6 103q-38 84 -74 163t-68 157q82 30 156 74t106 70q32 28 66 61t60 67q36 -74 71 -153l70 -158t69 -158t68 -157zM285 1420q28 68 102 145t162 121t174 37t140 -109q58 -130 116 -261
t112 -259q-100 -2 -227 -69t-173 -103q-34 -28 -68 -62t-60 -70q-32 78 -67 157l-70 158t-71 158t-70 157zM1161 774l-114 248q36 6 64 5t38 -13q62 -92 48 -139t-36 -101z" />
    <glyph glyph-name="language" unicode="&#xf01c;" vert-adv-y="2046" 
d="M1196 1158l-4 20t-4 16q-4 -8 -8 -15t-6 -11q6 -4 12 -6t10 -4zM850 176q-114 -112 -221 -132t-297 -124q88 150 111 256t-39 212q-148 112 -212 256t-64 332q0 82 17 159t49 151v0q8 -10 11 -21t7 -23q-4 -20 -10 -38t-8 -36q18 -34 38 -73t40 -75h18h14q6 -10 14 -21
t14 -23q22 -16 43 -32t43 -30h14h12q2 -10 9 -22t11 -22q10 -2 21 -2h21q2 -10 2 -20t2 -20q-4 -8 -8 -17t-6 -15q16 -32 32 -66t32 -66q10 -6 22 -13t22 -11q10 -102 16 -146l6 -44q10 -22 19 -44t15 -42q14 -16 29 -29t29 -27q2 6 3 10t3 6q-6 8 -14 15t-12 13q2 2 5 9
t5 11q-4 10 -9 22t-9 18q26 48 57 101t67 107q0 16 1 33t1 33q4 8 11 19t11 17q-22 18 -45 35t-45 37h-18h-14q-2 12 -5 27t-5 29q-12 2 -24 2h-24q-4 12 -5 24t-3 26q-16 0 -30 1t-28 3q-8 4 -17 9t-15 9q-10 -10 -22 -16t-22 -10q-8 0 -19 1t-21 1q-2 12 -5 24t-5 24
q-6 0 -12 2t-10 4v19t2 21q-2 4 -7 7t-9 5q-6 -2 -13 -8t-11 -10h-5h-5q-6 6 -13 16t-13 16q4 16 13 30t13 28q16 0 33 2t33 2q4 -12 9 -22t9 -16h10h10q-4 12 -6 24t-4 26q10 14 21 26t23 26v15v13q4 8 10 15t10 11q4 0 10 -1t10 -1v21t2 23q28 20 57 41t59 41
q-18 26 -31 55t-27 55q-24 2 -46 4t-42 4q-4 -14 -7 -26t-5 -26q0 -4 2 -7t4 -5q-6 -14 -13 -27t-11 -27q-6 10 -14 23t-12 27q-10 4 -20 7t-16 5q-4 4 -9 10t-9 10q12 12 23 25t21 25h27h27v17v15q6 10 12 19t10 19q6 0 13 3t11 3q-6 -16 -13 -30t-11 -28q18 -4 35 -6
t35 -4l24 28l24 28q-20 28 -41 54t-39 50q30 30 61 60t59 58q52 16 106 29t108 17q-48 -10 -96 -22l-96 -24q-22 -20 -42 -43t-40 -45q2 -4 4 -12t4 -12q10 4 20 9t16 9q6 -6 13 -14t11 -12q-2 -26 -3 -52t-3 -52l16 -40t14 -40q8 0 19 -1t21 -1q8 18 15 34t13 30
q20 10 43 19t45 15q16 28 30 51t28 47q4 22 8 41t6 39q8 10 16 17t14 13q-12 14 -24 25t-22 23q16 2 33 2h33q84 0 165 -14t156 -40t142 -63t127 -85l-20 -8v-12v-8q-20 4 -37 12t-33 14q-6 -10 -13 -19t-11 -15q4 -8 9 -13t7 -9q-18 10 -37 23t-37 27q2 12 8 21l10 15
q10 4 21 7t21 7q-4 4 -9 11t-9 11q-10 -4 -20 -10t-20 -10q-6 -10 -13 -21t-11 -23q14 -16 25 -27t23 -25q-14 2 -27 2t-27 2q-12 -18 -31 -31t-37 -27q-12 8 -20 17t-14 19q12 -4 22 -4t22 -2q4 8 6 17t4 15q-26 10 -55 21t-57 17q-12 -4 -31 -9t-37 -9q-14 -28 -30 -55
t-32 -55v-23v-21q10 2 21 3t23 3q2 -8 5 -17l5 -15q10 4 20 9t20 7v18v20l-8 8l-8 8q12 16 19 30t13 28q8 -4 12 -11t8 -11q-4 -6 -12 -14l-14 -14l8 -16t8 -14q10 2 20 5t20 7q8 -2 10 -7t4 -9q-16 -8 -32 -15t-32 -13q0 -8 -1 -14t-1 -10q-16 0 -32 -1t-30 -3q-4 6 -8 13
t-8 11q-4 -4 -9 -6t-9 -4q4 -8 7 -17l5 -15q-10 -10 -19 -21t-15 -21h-12h-10q-8 -10 -17 -18t-15 -14q4 -6 11 -13l11 -11q-8 -8 -9 -16t-3 -14q-14 2 -28 3t-28 1q10 -22 17 -45t13 -47q20 24 39 46t37 42l8 -4t6 -4q6 6 11 13t9 11q12 -10 23 -21t21 -17l4 -24l4 -24
q8 10 14 22t10 18q-10 16 -18 32t-18 30l3 6t3 4q14 -16 25 -33t21 -33q2 -10 4 -22l4 -24q10 -10 20 -19t20 -15q-8 16 -8 33t-2 33q10 -16 20 -33t20 -33l16 24t14 26q0 -12 -1 -25t1 -27l-8 -8t-6 -8q-16 2 -35 2t-37 2q-4 6 -10 13t-10 11q-4 -10 -13 -18t-13 -14
q-16 6 -28 12t-26 10q2 6 2 12t2 10q-4 6 -10 13t-8 11q-16 -4 -33 -4t-33 -2q-32 -38 -62 -70t-62 -64q0 -36 1 -67t1 -63q18 -16 31 -29l27 -27q20 -2 45 -3t47 -3q10 -10 24 -20t24 -16l-12 -8t-10 -8q10 -16 22 -33t22 -33q0 -12 -1 -23t-1 -23q-4 -6 -9 -15t-9 -13
q8 -42 20 -84t18 -78q14 0 26 -1t24 -1q24 26 45 53t43 53q2 8 4 19t4 21q8 6 16 14t14 12q2 14 3 28t1 28q-4 4 -6 7t-4 7q30 46 57 91t55 91q-14 -4 -26 -5t-26 -3q-12 10 -21 19l-15 15q-12 30 -22 61t-22 63q0 10 -1 19t1 15h10h10q18 -46 35 -89t33 -87q16 10 33 19
t35 15q6 12 14 24t14 22q-6 10 -14 20t-14 16q-6 -4 -13 -7t-11 -5q-8 16 -15 28t-11 26q38 -10 77 -20t75 -16q-6 -14 -6 -27t-2 -27q8 -2 12 -4l8 -4q4 -20 10 -45t10 -45q8 6 20 10t18 8q2 12 2 24v22q16 14 29 27t25 27q2 8 4 18t4 16h7h7q-2 -10 -2 -21v-21
q8 -32 19 -67t17 -69q-8 0 -17 1t-15 1q16 -28 30 -55t26 -53q16 -2 27 -3t25 -3q0 4 1 10t3 10q-10 4 -20 9t-20 9q0 10 -2 21t-2 21q-4 0 -9 1t-9 1q-2 4 -2 11v11q4 -4 10 -4t10 -2q4 2 8 7t6 7q-8 8 -16 15t-14 11v24t-2 24q2 2 6 2h6q2 -8 5 -19t5 -21q10 10 22 19
t22 15q-4 12 -10 24t-10 24q16 12 31 23t29 23q2 -10 2 -22v-24q0 -170 -71 -318t-192 -258t-284 -174t-349 -64q-74 0 -88 -4q-18 -2 -86 18zM340 1504l2 -2h-4h2v2zM526 1006q-12 4 -24 10t-26 10v-17t-2 -15q10 -4 23 -7t25 -5q2 6 2 13t2 11zM638 944q-22 12 -45 25
t-45 25q-2 -4 -3 -10t-3 -10q20 -10 40 -22t40 -18q4 6 8 7t8 3zM544 1022q-4 12 -11 23t-11 23v-15v-13q4 -4 11 -9t11 -9zM1404 1214q-26 4 -40 6l-16 2h-10h-10l-11 -11l-13 -13q-2 6 -3 14t-3 14q4 12 10 23t16 21q4 -4 9 -12t9 -14q4 0 9 1t9 1q-2 4 -2 10t-2 12
q4 -2 11 -3t13 -3q4 -12 12 -24t12 -24zM1504 1158q-4 -2 -11 -4t-11 -4q-2 20 -5 42t-7 42q4 2 9 8t7 10q2 -2 4 -5t4 -5l-5 -15t-5 -17q4 -12 10 -25t10 -27zM1558 1206h-8t-8 -2q-2 6 -3 16t-3 18q4 0 8 2t8 2q2 -6 3 -16t3 -20zM180 674l2 -4l28 -20q4 4 7 5t5 3
q-10 10 -21 20t-17 16q-2 -2 -3 -9t-1 -11zM274 624l-15 10l-15 10q-2 -2 -3 -6t-3 -8q6 -6 15 -12l15 -10q2 4 3 8t3 8zM1098 1358q-6 4 -15 13l-13 13q-4 10 -8 21t-6 17l-12 -16t-10 -12q8 -8 16 -19t14 -17q-4 -10 -8 -19t-6 -15h21h23q0 10 2 19t2 15zM1040 1344
q-4 10 -11 20t-11 16q-6 -8 -11 -20t-9 -18q6 -8 12 -14l10 -10q6 6 11 14t9 12zM1010 1500q-6 6 -14 16t-12 16q-18 -8 -32 -13t-28 -9q6 -16 15 -29t15 -27q12 10 27 22t29 24zM1454 674q-4 4 -9 7t-7 5q-10 -12 -22 -23t-22 -17q-4 -10 -9 -21t-9 -23q8 -10 17 -18
t15 -14q10 26 22 52zM1782 546q22 28 40 58t32 62l-36 -24q-6 -14 -13 -27t-13 -25q4 -2 7 -3t5 -3q-8 -10 -16 -22t-14 -22zM1898 802q4 18 9 36t7 38l-6 8q-10 -10 -21 -22t-21 -24q-4 -10 -7 -21t-5 -21q10 -2 19 -5l15 -5z" />
    <glyph glyph-name="agent" unicode="&#xf01d;" vert-adv-y="2046" 
d="M827.9 698q2 34 3 70t-1 74q34 -22 73 -40t73 -28q2 0 65 -4q63 -4 73 -4q26 10 53 22t55 28q-2 -30 0 -61t6 -57h-200l102 -134l100 134q18 -16 46 -30t46 -22q74 -28 218 -60t182 -90q36 -68 54 -185t16 -161q-4 -36 -71 -66t-174 -48t-244 -27t-281 -9q-144 0 -288 8
t-255 30t-174 59t-45 95q30 98 37 165t57 139q26 36 159 88t223 62q32 4 55 17t33 35l102 -134l102 134h-200zM671.9 1148q-14 24 -25 50t-17 52q-4 2 -7 2t-5 2q-4 200 104 298t206 132q114 40 208 29t154 -44t81 -74t-9 -61h7t7 -2q60 -24 67 -82t-5 -112q-10 -54 -23 -99
t-35 -89q-4 -12 -8 -25t-6 -25q-10 -60 -15 -111t-37 -85q-30 -34 -89 -64t-111 -50q-8 -2 -73 2q-65 4 -67 4q-56 18 -118 50t-94 78q-32 42 -56 101t-34 123zM1355.9 1684l-6 8l-4 2v0q-60 44 -143 71t-179 27q-96 -2 -180 -28q-84 -24 -142 -70v0l-8 -8l-4 -4l-4 -4
l-4 -4l-74 -70q-4 -10 -15 -19t-23 -13q-6 -2 -8 -3l-6 -3q-32 -14 -56 -42t-24 -142q0 -16 8 -25t20 -11v-42h-12q-6 0 -7 -2t-1 -4v-148q0 -2 3 -3t5 -1h2q0 -32 10 -69t44 -79q38 -40 158 -82t148 -42l12 -12t24 -8q16 0 41 7t31 19q8 14 -3 27t-31 15t-36 -4t-26 -12
q-28 0 -144 40t-148 72q-28 28 -34 62t-6 66h4h3t3 2q2 -4 5 -11t5 -11q10 -12 24 -24t32 -18h4q4 -6 6 -8t4 -2h50v4v0v0q2 0 2 2v4v288l-2 2v0v0h-50q-4 0 -6 -3t-4 -5l-6 -2q-16 -6 -30 -17t-24 -25q-4 -8 -6 -13t-4 -9l-3 3t-3 1h-12v42q12 4 20 13t8 23q0 76 9 92
t21 20q4 0 11 3t13 7q16 10 31 20t27 26q58 62 152 97t206 35q112 -2 206 -38q96 -34 150 -92q14 -16 29 -27t31 -21q6 -4 13 -6t11 -4q10 -4 20 -21t10 -91q0 -16 8 -25t20 -11v-42h-14q-2 0 -3 -1t-1 -3q-4 6 -6 12t-4 10q-10 12 -25 25t-31 17l-4 2q-4 6 -6 6t-4 2h-50v0
h-2v-296h2q-2 -4 0 -4v0h50q2 0 5 4t5 6h4l2 2q16 6 31 16t21 24q2 8 6 13t6 9q0 -2 1 -2h3h48q6 0 7 1t1 3v148q0 4 -3 5t-5 1h-12v42q12 4 20 13t8 23q0 116 -24 143t-56 41q-4 2 -8 3t-6 3q-12 6 -23 14t-17 18l-72 70v0q-2 4 -5 6t-5 4v0z" />
    <glyph glyph-name="staff" unicode="&#xf01e;" vert-adv-y="2046" 
d="M1011.59 1792q20 0 39 -1t37 -5q78 -14 132 -54t84 -108q26 -52 39 -120t13 -150q14 4 23 -20t9 -48q0 -16 -17 -66t-47 -80q-4 -4 -9 -10t-9 -10q-10 -20 -21 -39t-27 -41q-30 -50 -62 -128t-88 -94q-10 -2 -38 0t-50 0q-20 0 -43 -2t-39 0q-74 6 -96 69t-54 125
q-10 20 -21 38t-19 38q-4 -2 -16 3t-24 25q-22 30 -43 80t-21 66q-2 26 8 61t22 27q-16 202 71 323t267 121v0zM813.593 714h2q2 62 0 105t-6 95q20 -54 44 -102t90 -60q6 -2 18 -1t20 3v0q24 2 38 1t36 -1h26h24q44 14 69 85t47 123q2 6 5 13t5 13q-10 -68 -14 -145t0 -153
l2 2q44 0 59 -29t93 -59q74 -28 161 -52t127 -58q62 -52 103 -176t35 -168q-4 -36 -71 -66t-175 -48t-246 -27t-284 -9q-144 0 -289 9t-257 31t-176 58t-46 96q32 98 66 185t126 145q36 26 126 62t164 70q30 14 43 36t35 22z" />
    <glyph glyph-name="staff_group" unicode="&#xf01f;" vert-adv-y="2046" 
d="M545.8 1644l36 -10q-38 -108 -38 -240q-16 -34 -22 -72t-6 -72q4 -44 44 -136q14 -34 34 -64h-50q-34 0 -54 2t-33 17t-20 30t-22 50t-31 65q-22 -6 -40 38q-30 70 -18 112q4 14 16 10q-12 124 42 197t162 73zM425.8 984q2 52 -4 106q14 -44 38 -63t70 -15q12 2 28 2
t23 2t16 4t17 4q18 -24 40 -38q4 -10 22 -48l6 -34q4 -58 4 -120q-4 -4 -10 -12q-26 -12 -87 -38t-99 -43t-87 -44t-79 -55q-16 -14 -32 -32q-234 28 -208 106q14 38 24 68q10 30 20 50t28 39t28 29t35 24t40 21t55 24t64 27q12 4 25 20t23 16zM1453.8 1104q44 76 55 163
t-27 157q-6 106 -40 194q124 42 226 -14q62 -34 46 -66q-4 -6 -10 -12q94 -16 14 -226q-2 -4 -2 -6q-4 -14 -13 -62t-25 -68q-44 -46 -105 -62t-119 2zM1501.8 1018l62 -84l62 84q28 -28 94 -44t125 -32t79 -48q22 -36 34 -124t8 -126q-4 -52 -202 -74l-24 24q-34 30 -90 53
t-134 46t-104 31q-14 4 -48 34q-14 12 -22 22q0 90 12 164q24 48 32 62l54 -72l62 84h-110q14 26 26 38q6 6 16 18q86 -38 186 16q-2 -36 4 -72h-122zM1011.8 1792q44 0 76 -6q150 -26 216 -162q52 -104 52 -270q14 4 24 -18t8 -50q0 -20 -20 -69t-44 -77l-18 -18
q-10 -14 -27 -45t-21 -37q-12 -16 -38 -77t-53 -98t-59 -47q-14 -2 -24 -2t-32 1t-30 1q-12 0 -43 -2q-31 -2 -41 -2q-34 4 -60 27t-37 45t-27 63t-26 61q-4 4 -19 33t-21 43q-16 -4 -40 28q-20 28 -42 79t-22 67q-2 16 3 40t13 39t14 9q-16 204 73 324t265 120zM813.8 714
v0q4 106 -4 200q2 -4 4 -14q12 -34 20 -51t22 -42t36 -38t52 -17q12 -2 38 2q34 4 72 0q38 -2 50 2q18 6 39 33t31 50t27 69t21 56q10 22 12 24q-24 -138 -16 -298l2 2q24 0 39 -14t42 -36t69 -38q32 -14 102 -35t117 -38t71 -37q54 -46 99 -168t37 -176q-6 -74 -232 -112
t-540 -38q-158 0 -294 9t-255 30t-179 60t-42 95q2 6 6 24q18 62 31 93t34 77t50 78t69 58q24 14 72 36t118 52t102 44q18 10 40 34t38 24z" />
    <glyph glyph-name="admin_access" unicode="&#xf020;" vert-adv-y="2046" 
d="M945.976 1792q22 0 41 -2q19 -2 37 -4q78 -12 130 -55t84 -107q26 -52 40 -120t14 -148q10 6 20 -18t10 -46q-2 -18 -19 -68t-43 -80q-8 -6 -12 -11t-8 -9q-8 -20 -22 -40t-26 -42q-30 -50 -63 -127t-85 -93q-12 -2 -40 0q-28 2 -48 0q-24 0 -47 -2t-37 0q-74 10 -95 71
t-53 121q-12 22 -23 40t-17 36q-6 -2 -17 5t-23 23q-22 30 -42 81t-22 65q-2 24 8 59t24 29q-16 200 70 321t264 121v0zM751.976 718v-2q0 64 -3 107t-7 95q22 -56 47 -107t89 -57h19t21 2v0q24 6 37 4t37 -4q14 0 28 2t20 4q46 12 75 75t51 117q-10 -70 -14 -128t0 -132h2
q44 0 59 -29t89 -57q76 -28 165 -52t125 -56q32 -26 61 -84t47 -112q-4 -2 -9 -3t-9 -3q-10 4 -18 5t-14 1h-58h-8t-10 -2q-4 2 -10 2h-10q-64 76 -164 80t-170 -66q-62 -62 -67 -149t49 -155q-60 -4 -121 -6t-123 -2q-144 0 -289 9t-256 31t-175 60t-46 96q30 98 67 185
t123 141q40 26 128 63t162 69q30 14 44 36t36 22zM1381.98 306q44 0 77 -24t53 -58h42v-38h30l8 38h58l32 -38h22l8 38h86l62 -60v-38l-62 -52h-292q-22 -30 -55 -49t-69 -19q-64 0 -107 44t-43 106q0 64 44 107t106 43zM1461.98 238q34 -34 34 -82t-34 -82q-34 -32 -83 -33
t-81 33q-34 34 -34 83t34 81q34 34 82 34t82 -34zM1379.98 290q-54 0 -94 -40t-40 -94t40 -93t94 -39q52 0 92 39t40 93q0 56 -39 95t-93 39zM1455.98 112q4 0 6 4t2 8v18q0 2 -2 7t-6 5h-158q-4 0 -7 -4t-3 -8v-18q0 -8 3 -10t7 -2h158zM1349.98 250q-16 0 -27 -12t-11 -28
t12 -27t26 -11q16 0 29 12t13 26t-13 27t-29 13z" />
    <glyph glyph-name="workflow" unicode="&#xf021;" horiz-adv-x="2040" vert-adv-y="2046" 
d="M591.818 1278v0v78q0 30 17 55t41 43q26 18 58 29t58 11h188q24 0 57 -10q33 -10 61 -30q26 -20 42 -44t16 -54v-78h-80v78q0 6 -7 16t-17 16q-18 14 -37 19q-19 5 -35 5h-188q-14 0 -33 -6t-35 -18q-12 -8 -19 -18t-7 -14v-78h-80zM1607.82 1276v0q24 -14 38 -38t14 -54
v-192q-12 -2 -22 -7t-20 -11l-4 -4l-4 -8l-12 -28q-2 -4 -6 -7t-8 -5v0q-2 -4 -5 -5t-7 1l-92 24q-4 0 -6 2l-4 4q-2 6 -2 12v10v32v6v6q-8 14 -18 26t-22 16q-10 8 -24 11t-28 1l-104 -14q-14 -4 -28 -12t-24 -14q-8 -10 -14 -24t-8 -28v-10l2 -4l10 -28q2 -6 2 -12v-10
t-1 -6t-3 -4l-86 -48q-4 -2 -8 -2h-6v0q-2 2 -7 6t-9 8l-18 20l-14 10q-12 6 -26 6t-28 -2q-14 -4 -28 -12t-20 -20l-10 -14q-2 4 -7 5t-9 1h-144q-6 0 -12 -3t-10 -7t-7 -11t-3 -11v-78q-86 4 -173 19t-174 40t-175 62t-172 83v230q0 30 14 54t36 38q8 2 16 3t14 1h410
l-2 -2h-2q0 -8 24 -13t56 -5q36 0 58 6t22 12v0v2h304q-4 0 -4 -2v0q0 -8 24 -13t57 -5t56 6t23 12v0v2h412q8 0 16 -1t12 -3zM783.818 724v102v3t2 3h2v0h132l-32 -54q-6 -14 -13 -29t-7 -31t5 -32t15 -28l4 -4h-104v0h-2q-2 0 -2 1v3v66v0zM961.818 218v0h-798
q-42 0 -72 30t-30 74v580q86 -48 170 -84t167 -62t167 -43t170 -21v-36q0 -6 2 -12t6 -10t11 -7t13 -3h144q4 0 8 2t6 2t3 -2t3 -4q4 -2 4 -5v-7l-26 -96q-2 0 -4 -2t-6 -4v0q-2 -2 -9 -3t-11 -1l-32 2h-4l-8 -2q-16 -6 -26 -16t-16 -22v0q-8 -12 -10 -26t0 -30l14 -100
q2 -16 9 -30t17 -20v0q10 -14 23 -19t27 -5l8 -2l6 4l28 8q6 0 12 2t10 2v0q4 -4 6 -5t4 -3zM1375.82 666q-92 -14 -148 -88t-44 -166q14 -92 88 -147t166 -43t148 87t42 165q-12 92 -86 149t-166 43zM1377.82 1014v0q20 0 38 -8t22 -26l-2 -26q-2 -24 7 -42t29 -22l92 -24
q22 -6 40 5t24 31l12 26q16 12 34 13t34 -11l82 -64q16 -12 20 -30t-2 -34l-20 -20q-18 -14 -24 -32t4 -36l50 -84q10 -18 30 -21t40 1l26 12q18 -2 32 -15t16 -33l16 -104q2 -18 -7 -35t-25 -23l-32 2q-18 2 -38 -7t-24 -27l-24 -94q-6 -22 7 -40t31 -22l26 -12
q10 -18 11 -36t-11 -32l-64 -84q-10 -16 -29 -18t-35 2l-18 20q-14 16 -33 23t-37 -5l-84 -48q-16 -10 -18 -29t2 -39l8 -30q-2 -18 -15 -32t-33 -16l-100 -14q-18 -2 -37 7t-23 27l2 28q0 20 -8 39t-28 23l-94 24q-20 6 -38 -5t-24 -31l-10 -28q-18 -10 -37 -11t-33 9
l-82 66q-16 10 -20 28q-4 18 2 34l22 22q14 16 22 34t-2 36l-52 84q-8 16 -29 18t-41 -2l-28 -8q-18 0 -32 13t-18 33l-12 102q-2 18 6 36t26 22h30q22 0 41 8t23 26l26 96q2 20 -9 37t-31 23l-26 10q-12 18 -12 37t12 33l62 84q12 16 30 19q18 3 36 -1l18 -22
q14 -18 33 -25t37 5l82 50q20 10 22 30t-2 40l-10 30q0 16 14 30t32 18z" />
    <glyph glyph-name="sla" unicode="&#xf022;" vert-adv-y="2046" 
d="M386 822q-32 0 -54 22t-22 52t22 52t54 22q30 0 52 -22t22 -52t-22 -52t-52 -22zM1670 970v0q32 0 54 -22t22 -52t-22 -52t-54 -22t-54 22t-22 52t22 52t54 22zM998 990v0q-84 154 -207 223t-137 277h100h100q-32 -136 56 -255t88 -245zM1838 1792v0h18v-78q0 -16 -5 -30
t-15 -24t-23 -17t-27 -7h-84l38 -578q2 -30 -20 -51t-52 -21t-52 21t-22 51l40 578h-32q-8 -32 -33 -73t-31 -41h-24q-20 -34 -32 -74t-18 -82q-18 -70 -41 -137t-93 -103q-6 -4 -16 -9t-20 -9q-70 -38 -141 -91t-59 -137q10 -76 66 -116t114 -70q22 -10 44 -23t42 -27
q50 -36 71 -99t35 -131q8 -40 20 -78t28 -66h24q6 0 11 -4t7 -8l44 -102h34l-40 578q0 30 22 50t52 20t52 -20t20 -50l-38 -578h84q16 0 28 -7t22 -17q8 -10 14 -24t6 -30v-78h-1664v78q0 16 5 29t15 25q10 10 23 17t27 7h88l-40 578q0 30 22 50t52 20t51 -21t19 -49
l-36 -578h30l44 102q2 6 8 9t10 3h28q16 30 27 67t17 79q14 70 40 138t96 110q6 4 16 10t20 10q70 38 141 91t59 135q-10 76 -66 115t-114 69q-22 14 -44 26t-40 26h-2q-50 38 -70 100t-34 126q-10 38 -21 78t-29 72h-24q-8 0 -33 41t-31 73h-28l36 -578q4 -30 -18 -51
t-52 -21t-52 21t-22 51l40 578h-88q-16 0 -28 7t-22 17q-8 10 -14 24t-6 30v78h1646zM1428 1376v0q8 38 17 75t25 71h-892q16 -34 26 -71t16 -73q14 -60 32 -117t62 -87q12 -10 34 -23t46 -25q64 -32 124 -79t74 -133q0 -6 1 -15t1 -13l30 54l32 -56q-12 98 66 156t154 100
q8 4 19 11t17 11q60 32 81 91t35 123z" />
    <glyph glyph-name="sla_1" unicode="&#xf023;" vert-adv-y="2046" 
d="M974 948q-10 -10 -15 -24t-5 -28q0 -16 7 -29t13 -23q8 -10 21 -15t29 -5t30 6q10 8 20 14q12 10 16 24t4 29t-7 28t-13 23q-8 10 -22 14t-29 4t-27 -6t-22 -12zM1014 394l-16 384q-16 4 -32 12t-28 20q-14 16 -25 38t-11 48q0 10 2 20t4 16l-258 232l296 -176
q16 16 36 23t42 7q18 0 35 -7t31 -13l194 154l-160 -190q12 -14 17 -31t5 -35q0 -26 -10 -48t-26 -38t-35 -25t-41 -11zM1384 508l26 26l58 -58q74 76 118 176t50 212h-88v70h86q-4 110 -49 209t-117 171l-64 -64l-26 26l66 66q-78 74 -179 117t-215 49v-88h-70v86
q-110 -6 -208 -51t-168 -117l60 -62l-26 -26l-62 62q-70 -74 -113 -171t-49 -207h86v-70h-88q4 -112 50 -213t118 -177l56 56l26 -24l-56 -56q74 -70 171 -113t203 -51v86h70v-88q114 4 214 47t178 119zM1024 1792q186 0 349 -71t284 -192t192 -283t71 -350q0 -186 -71 -349
t-192 -284t-284 -192t-349 -71t-349 71t-284 192t-192 284t-71 349t71 349t192 284t284 192t349 71z" />
    <glyph glyph-name="schedule" unicode="&#xf024;" horiz-adv-x="2118" vert-adv-y="2046" 
d="M168 1790v0h1644q58 0 98 -41t40 -95v-538h-50q-90 78 -204 123t-242 45q-126 0 -240 -45t-204 -123h-980v538q0 56 42 96t96 40zM1950 1074v-10q-2 2 -6 5t-4 5h10zM1950 158v-10q0 -54 -40 -96t-98 -42h-52q54 28 101 65t89 83zM1152 10h-984q-54 0 -96 41t-42 97v926
h940q-42 -44 -73 -90t-57 -100q-4 4 -13 10t-17 10q-30 12 -63 19t-73 7q-32 0 -61 -4t-55 -16q-24 -10 -44 -23t-36 -29t-27 -34t-19 -36q-10 -20 -14 -39t-4 -34t3 -28t15 -19q6 -10 17 -14t25 -4q16 0 27 4t19 16q6 6 14 20t14 32q4 16 8 28t6 14q20 30 48 45t60 15
q16 0 31 -3t29 -11q14 -6 25 -17t17 -23q6 -14 11 -30t5 -30v-6q0 -4 -1 -10t-1 -10q0 -6 -3 -17t-7 -21q-6 -18 -18 -31t-28 -31q-12 -14 -30 -30t-40 -30q-12 -6 -31 -24t-49 -46q-30 -24 -59 -54t-65 -64q-6 -10 -15 -22t-15 -28t-10 -29t-4 -21q0 -14 6 -28t16 -22
q10 -12 25 -17t37 -5h380q16 0 30 5t22 13l2 2v2q44 -54 101 -98t121 -78v0zM590 286q4 10 13 20t13 14q16 18 42 43t62 57q24 16 42 31t32 29q10 -52 29 -100t43 -94h-276zM250 1436v0q0 6 -3 10t-5 8q-2 2 -6 3t-8 1t-7 -1t-5 -3q-6 -2 -6 -8v-10v-110q0 -20 -6 -31
t-20 -11q-6 0 -9 4t-5 6q-2 0 -6 3t-4 5q0 4 -2 10t-2 10q0 2 -2 5t-4 7q-2 0 -5 2t-7 2q-6 0 -8 -2t-6 -2q-2 -4 -3 -7t-1 -8v-10t2 -9q2 -6 3 -10t3 -6q2 -8 10 -14t12 -8q6 -4 15 -6t19 -2t21 4t15 8q8 4 13 12t9 14q6 4 7 9t1 9v11v11v104zM384 1278v0q2 -4 5 -9t5 -7
q4 -4 5 -6t3 -2q8 0 10 2t6 4q2 2 2 6v8v2q2 4 0 8q-4 8 -4 13v9v12v10v10v10q0 10 -2 20t-4 14q0 6 -7 10t-13 6q-6 6 -15 6h-23q-12 0 -21 -1t-13 -5q-8 -4 -13 -7t-9 -7q-6 -4 -7 -10t-1 -10v-4t2 -6q6 0 9 -2t5 -2t5 2t5 2v2q2 4 6 8q0 2 4 6l6 6q6 2 11 3t11 1
q8 0 13 -1t7 -5q4 -2 6 -10t2 -14q-8 0 -12 -2l-8 -4q-6 0 -13 -1t-13 -1q-8 -2 -12 -4h-4q-10 -4 -17 -7t-11 -7q-4 -6 -6 -12t-2 -16q0 -2 2 -8t4 -10t7 -9t9 -7q6 -4 14 -6t12 -2q6 0 14 2t12 6q8 2 15 7t13 9zM380 1330v0v-6q0 -10 -2 -17t-2 -11q-6 -2 -8 -7t-6 -5
q-2 -2 -10 -3t-12 -1h-7t-5 4q-8 2 -8 7v9v7t2 5q6 2 8 4t4 2q4 4 10 4t12 2q8 2 14 3t10 3zM488 1384v0q0 4 -3 6t-3 4q-2 4 -2 7t-2 3h-5h-5h-6t-7 -5t-4 -8t-1 -7v-104q0 -6 2 -11t4 -7q4 -4 7 -6t7 -2t7 2t7 5t5 9t1 10v44v18t2 12q0 6 2 11t6 7l12 3t8 1q8 0 13 -4
t7 -8q2 -2 4 -10t2 -14v-60q0 -6 1 -11t5 -7q0 -4 3 -6t7 -2q8 0 10 2t4 6q4 2 4 8v10v66q0 8 1 11t-1 7q0 8 -1 10l-3 6q-2 6 -8 11t-10 7q-6 6 -14 6h-12h-14t-13 -5t-9 -10t-8 -9v4zM710 1278v0q0 -4 1 -9t5 -7q0 -4 4 -6t8 -2t6 2t4 6q2 2 4 7t2 9v106q0 4 -1 8t-5 6
q-2 6 -7 6h-9q-2 0 -5 -1t-3 -5q-4 -4 -5 -7t-1 -7v-44q0 -14 -1 -23t-3 -13t-5 -7l-7 -7t-9 -5t-9 -1t-8 1t-6 1q-4 8 -6 10t-2 6t-1 11t-1 11v60v8t-2 6q-8 6 -10 6h-6h-7t-6 -5t-6 -8t-3 -7v-74q0 -10 4 -19t6 -13q4 -4 8 -9t8 -7q4 -4 11 -6t13 -2t11 2t9 4t8 3t8 5
q4 2 7 6t7 8v-4zM874 1278v0q2 -4 6 -9t8 -7q0 -4 2 -6t4 -2q6 0 9 2t5 4t3 6t1 8v2q0 4 -4 8q-2 8 -2 13v9v12v10v10v10q0 10 -1 20t-5 14q-2 6 -9 10t-11 6q-6 6 -15 6h-23q-10 0 -18 -1t-14 -5q-10 -4 -15 -7t-9 -7t-5 -10t-1 -10q0 -2 1 -4t1 -6q4 0 7 -2t5 -2q4 2 6 4
v0q4 0 5 3t5 7q2 2 4 6t6 6q6 2 12 3t10 1q8 0 13 -1t9 -5q2 -2 4 -10t2 -14q-6 0 -12 -2t-10 -4q-4 0 -11 -1t-11 -1q-8 -2 -11 -3t-5 -1q-10 -4 -17 -7t-11 -7q-6 -6 -8 -12t-2 -16q0 -2 3 -8l5 -10t6 -9t8 -7q6 -4 13 -6t13 -2t13 2t12 5t14 8t15 9zM870 1330v0v-6
q0 -10 -1 -17t-3 -11q-4 -2 -8 -7t-8 -5q-2 -2 -8 -3t-10 -1h-10t-6 4q-4 2 -5 7t-1 9t1 7t3 5t5 4t7 2q2 4 9 4t11 2q6 2 13 3t11 3zM980 1308v0v16v14t1 9t3 9t4 6l4 4q2 6 5 7t7 1h9t7 -2q2 -6 6 -6h2q2 0 5 3l5 5q2 0 4 3t2 7t-4 8t-8 6q-6 6 -12 6h-10q-6 0 -11 -1
t-7 -5l-8 -8t-6 -8q0 6 -1 10t-3 6q-2 6 -6 6h-8q-8 0 -12 -6t-4 -18v-100q0 -6 1 -11t3 -7q2 -4 6 -6t6 -2q4 0 8 2t6 5t4 9t2 10v28zM1100 1252v0q-8 -4 -8 -8t-2 -6q-2 -4 -3 -5t-3 -1t-4 -1t-6 -1h-3t-3 2h-2h-6l-4 -2l-4 -2q-2 -2 -2 -5v-5v-8t4 -6q6 0 13 -1t13 -1h14
t12 4l8 8t6 8q4 4 7 12t5 12l48 128q2 0 2 2v6q2 2 2 4v4v4q-2 2 -2 4l-2 4q-2 2 -4 2h-2h-6q-2 0 -4 1t-4 -1l-2 -4q-4 -4 -4 -6q-2 -2 -3 -6t-3 -8l-30 -86l-30 92l-4 8t-4 4q0 6 -4 6h-8h-4q-2 2 -4 0q-2 0 -4 -4t-2 -6q-2 0 -2 -4v-2q0 -4 1 -7t1 -7l46 -114v-8z
M204 1740v0q-56 0 -97 -41t-41 -95v-36q0 58 42 98t96 40h1576q56 0 96 -40t40 -98v36q0 56 -41 96t-95 40h-1576zM1454 1244q132 0 248 -50t201 -135t135 -201t50 -248t-50 -248t-135 -201t-201 -135t-248 -50q-130 0 -247 50t-202 135t-135 201t-50 248t50 248t135 201
t202 135t247 50zM1710 338l16 16l44 -40q50 54 81 124t37 150h-62v50h62q-4 78 -36 147t-82 121l-46 -46l-18 20l46 44q-54 52 -125 83t-153 35v-62h-50v62q-78 -4 -146 -36t-122 -82l44 -46l-18 -18l-44 44q-50 -52 -80 -121t-34 -145h60v-50h-62q4 -82 36 -152t82 -122
l40 38l20 -18l-40 -40q52 -48 120 -79t144 -37v62h50v-62q80 4 151 35t125 81l-40 44v0zM1450 254v0l-12 272q-14 4 -24 9t-20 15t-17 26t-7 34q0 4 1 12t3 12l-184 164l210 -124q10 12 24 16t30 4q14 0 25 -3t23 -9l138 108l-112 -132q6 -12 9 -24t3 -24q0 -18 -6 -34
t-20 -26q-10 -10 -24 -17t-30 -9zM1420 644l-10 -15t-6 -19q0 -8 6 -20t10 -16q6 -8 15 -11t19 -3t20 5t18 10t11 15t3 20t-6 19l-10 15q-6 10 -16 14t-20 4t-19 -6t-15 -12z" />
    <glyph glyph-name="calendar" unicode="&#xf025;" vert-adv-y="2046" 
d="M236 1740q-54 0 -95 -39t-41 -97v-34q0 54 40 95t96 41h1576q54 0 95 -40t41 -96v34q0 54 -39 95t-97 41h-1576zM284 1436v10t-8 8q-2 2 -5 4t-7 2t-8 -1t-10 -5q-2 -2 -2 -7v-11v-110q0 -18 -7 -29t-19 -11q-4 0 -8 3t-6 5t-6 4t-4 6q-2 2 -2 6t-2 12l-3 6l-3 6
q-2 2 -5 3t-7 1t-7 -2t-7 -2q-2 -2 -3 -6t-1 -6v-10t2 -12q2 -4 3 -9t3 -7q4 -6 10 -11t12 -9t15 -7t19 -3t18 4t18 8q6 4 12 10t8 16q2 4 6 9t4 9v10v12v104zM416 1278q2 -4 5 -8t7 -8q2 -2 4 -5t4 -3q4 0 8 2t6 6q2 2 3 4t1 8v4t-2 6t-2 11v13v10v10v9v13q0 6 -1 16t-5 16
q-2 4 -7 8t-13 12q-4 2 -15 3t-23 1q-10 0 -20 -1t-16 -3t-11 -8t-9 -10t-6 -8t-2 -12q0 -2 1 -4t1 -4q2 -2 6 -2h8h6h2q2 2 3 4t5 6q2 4 6 7t6 5t8 3t13 1t12 -1t7 -5t5 -9t3 -11q-4 -2 -11 -4t-9 -4q-4 -2 -12 -2t-14 -2q-4 -2 -9 -3t-7 -1q-6 -2 -14 -6t-14 -8
q-4 -4 -6 -11t-2 -15q0 -4 1 -10t5 -10q2 -4 6 -8t10 -8l10 -5t14 -3t15 2t13 6q4 2 13 7t13 9zM414 1330v-6q0 -6 -1 -14t-7 -12l-4 -8t-6 -6t-10 -3t-12 -1q-4 0 -7 1t-11 3q-2 2 -3 7t-1 9t1 7t3 7q2 2 6 3t8 5q2 0 7 1t13 1q6 2 13 3t11 3zM522 1386q2 2 -2 6l-4 2
q-2 2 -2 6t-4 4q-2 2 -3 2h-5q-2 0 -6 -1t-6 -3t-4 -7t-2 -11v-106q0 -4 1 -8t5 -8q2 -2 6 -5t8 -3q2 0 6 2t4 6q2 2 6 7t4 9v46v21v11q2 4 5 7t5 11q4 2 10 2h10q6 0 11 -1t9 -9q2 -4 4 -10t2 -16v-62v-8t4 -8q2 -2 6 -5t6 -3t7 2t7 6q2 2 3 7t1 9v68v10v8q0 4 -1 9t-3 9
t-8 8t-10 8t-11 6t-17 2q-6 0 -12 -1t-12 -3q-4 -2 -10 -8t-8 -14v6zM742 1278q0 -4 1 -8t5 -8q2 -2 4 -5t10 -3q4 0 6 2t4 6q2 2 4 7t2 9v106q0 4 -2 7t-4 11q-2 2 -5 3t-5 1q-4 0 -8 -1t-8 -3q-2 -2 -4 -8t-2 -10v-44v-22t-2 -12t-5 -8t-9 -6q-4 -2 -7 -5t-9 -3h-7t-7 8
q-2 2 -4 5t-4 7t-2 9v11v60v7t-8 11q-2 2 -4 3t-6 1t-7 -1t-5 -3t-5 -8t-3 -10v-72q0 -12 2 -20t6 -14q2 -4 7 -8t9 -8q4 -2 11 -3t13 -1h10t10 2t7 3t9 5q2 2 5 6t7 8v-4zM906 1278q2 -4 5 -8t7 -8q2 -2 4 -5t6 -3t7 2t5 6l4 4t2 8q0 2 -1 4l-3 6t-2 11v13v10v10v9v13
q0 6 -1 16t-5 16q-2 4 -6 8t-14 12q-4 2 -16 3t-22 1t-19 -1t-15 -3t-12 -8l-10 -10t-5 -8t-1 -12v-4t2 -4t5 -2h7h4h2q2 2 5 4t5 6t5 7l5 5t9 3t13 1t12 -1t10 -5q2 -4 3 -9t3 -11q-4 -2 -12 -4t-10 -4q-4 -2 -10 -2t-14 -2q-6 -2 -10 -2l-4 -2q-6 -2 -15 -6t-13 -8t-8 -11
t-4 -15q0 -4 1 -10t9 -10q2 -4 5 -8t9 -8q4 -2 11 -5t13 -3t14 2t14 6q4 2 13 7t13 9zM904 1330v-6q0 -6 -1 -14t-5 -12q-2 -4 -5 -8t-9 -6q-4 -2 -9 -3t-9 -1t-9 1t-9 3q-2 2 -3 7t-1 9v7t4 7q2 2 4 3t6 5q2 0 9 1t13 1q6 2 13 3t11 3zM1012 1310v14t2 14v10t4 8l3 6l5 10
q2 2 5 2h7h5h11q4 -2 5 -5t3 -3t4 3t6 5q2 2 2 4v6t-2 7t-6 11q-4 2 -12 3t-10 1q-4 0 -10 -2t-10 -2q-2 -2 -6 -8t-6 -12q0 4 -1 8t-5 12q-2 2 -5 3t-7 1q-6 0 -12 -7t-6 -19v-102q0 -4 1 -8t5 -8l5 -5t7 -3t7 2t7 6q2 2 3 7t1 9v32zM1130 1252q-2 -4 -4 -6t-2 -8l-3 -3
t-5 -3q-2 -2 -4 -2h-6v0q-2 0 -6 2h-2h-4q-4 0 -6 -1t-4 -3t-2 -4v-6t1 -8t5 -6t10 -2h16q6 0 13 1t11 3t8 7t8 9q2 4 6 10t6 16l48 126q0 2 1 3t1 5q2 2 2 4v4v3t-2 5q-2 2 -2 4t-4 2q-2 2 -4 2h-4t-4 -1t-4 -1q-2 -2 -3 -2t-3 -8q-2 -2 -3 -6t-3 -8l-30 -84l-32 90l-3 6
t-3 10q-2 2 -5 3t-7 1q-2 -2 -6 -2h-2q-2 0 -4 -1t-4 -9q0 -2 -1 -3t-1 -3t1 -6t3 -8l46 -114zM1984 1074v-926q0 -56 -42 -96t-96 -40h-1642q-60 0 -100 41t-40 95v926h1920zM204 1792h1642q54 0 96 -40t42 -98v-538h-1920v538q0 54 41 96t99 42zM624 288q4 10 13 19t13 15
q14 18 41 42l63 56q42 34 70 57t44 37q16 16 33 35t31 45q16 30 24 59t8 61q0 20 -4 41t-10 39q-8 20 -19 36t-25 30q-12 16 -27 28t-35 18q-30 12 -65 18t-71 6q-34 0 -62 -5t-54 -15t-45 -23t-35 -27q-16 -16 -29 -33t-19 -37q-10 -20 -13 -39t-3 -37q0 -16 6 -28t12 -18
q8 -10 18 -14t24 -4q16 0 28 7t18 13q8 12 15 24t11 28q6 18 10 29t6 15q22 30 49 44t59 14q16 0 31 -4t29 -10q14 -8 24 -17t16 -23q12 -16 15 -30t3 -30t-5 -32t-11 -32q-6 -12 -17 -29t-25 -31q-14 -16 -32 -31t-38 -29q-10 -12 -31 -27t-49 -41t-59 -57l-65 -65
q-8 -12 -16 -23t-14 -25q-8 -16 -11 -30t-3 -20q0 -16 6 -28t16 -22t25 -17t35 -7h382q16 0 30 7t20 13q10 10 14 19t4 21q0 18 -6 30t-16 18q-10 10 -26 13t-36 3h-270zM1090 734q0 -52 26 -93t80 -65q-66 -26 -99 -74t-33 -118q0 -34 8 -63t22 -55q16 -26 39 -47t53 -35
q32 -18 68 -24t80 -6q42 0 78 8t66 22q30 18 54 38t38 46q16 26 24 56t8 62q0 20 -4 41t-10 39q-8 18 -19 34t-25 30q-18 16 -35 28t-39 18q28 12 47 28t31 36q16 22 21 45t5 49q0 18 -3 36t-9 36q-10 18 -22 34t-26 30q-16 14 -35 26t-43 18q-22 10 -49 14t-59 4
q-34 0 -68 -7t-60 -21q-28 -14 -48 -32t-34 -42q-16 -24 -22 -47t-6 -49zM1460 390q0 -22 -5 -40t-11 -32q-10 -16 -21 -29t-25 -19q-16 -10 -31 -13t-33 -3q-20 0 -36 5t-30 11q-16 12 -28 22t-18 26q-8 16 -13 33t-5 37q0 32 11 56t29 42q16 18 38 28t48 10q18 0 36 -5
t33 -13t27 -20t18 -26q10 -16 13 -33t3 -37zM1332 832q16 0 30 -4t26 -10q14 -8 24 -17t14 -21q8 -12 11 -26t3 -30q0 -10 -1 -22t-5 -18q-6 -10 -12 -19t-12 -15t-15 -12t-19 -8q-12 -4 -22 -6t-22 -2q-24 0 -44 7t-34 21q-16 16 -24 34t-8 40q0 24 8 44t22 34q16 16 35 23
t45 7z" />
    <glyph glyph-name="holiday" unicode="&#xf026;" vert-adv-y="2046" 
d="M370 1322h8t12 2q8 2 14 3t10 3v-6q0 -10 -2 -16t-6 -10l-4 -8t-6 -6q-6 -2 -12 -3t-10 -1t-9 1t-9 3q-2 8 -3 10t-1 6t1 7t3 5q6 2 8 5t6 5zM64 148v0v926h1920v-926q0 -56 -42 -96t-96 -40h-1642q-60 0 -100 41t-40 95zM540 588v0q-8 -10 -12 -21t-4 -23t5 -23t11 -21
l322 -324q12 -10 22 -14t22 -4q16 0 27 6t21 12l554 558q10 10 13 21t3 23q0 16 -3 27t-13 17l-88 88q-8 12 -19 15t-25 3q-12 0 -23 -4t-21 -14l-426 -426l-190 190q-8 12 -19 16t-25 4q-12 0 -23 -5t-21 -15zM1846 1792v0q58 0 98 -40t40 -98v-538h-1920v538q0 58 41 98
t99 40h1642zM284 1332v0v104q0 6 -3 10t-5 8q-2 2 -5 4t-7 2q-6 0 -9 -2t-5 -4q-6 -2 -6 -8v-10v-108q0 -20 -7 -31t-19 -11q-6 0 -9 3l-5 5q-2 0 -5 3t-5 7q0 2 -2 8t-2 10q-2 2 -3 6t-3 6q-2 0 -5 2t-7 2q-6 0 -8 -1l-6 -3l-3 -6t-1 -6v-13t2 -9t3 -9t3 -7q2 -8 10 -13
t12 -9l15 -5t19 -3t21 4t17 8t11 13t9 15q6 2 7 7t1 9v11v11zM450 1262q4 2 4 5v7v2q0 4 -2 8q0 10 -1 15t-1 9v10v10v10v12q0 10 -2 19t-4 13q-2 6 -9 12t-11 8q-6 2 -16 3t-22 1t-21 -1t-15 -3q-6 -8 -12 -11t-8 -7q-6 -4 -7 -10t-1 -10v-4t4 -4t6 -2h6q2 0 5 -1t3 1l4 4
t4 6q0 2 4 6t8 6t10 3t10 1q8 0 13 -2t7 -4q4 -2 6 -9t2 -11q-8 -4 -12 -5t-8 -3q-6 -2 -13 -3t-13 -3q-4 0 -9 -1t-7 -1q-8 -4 -16 -7t-12 -7q-4 -6 -6 -13t-2 -13q0 -4 1 -10t5 -10q2 -4 7 -8t9 -8q6 -2 14 -5t12 -3q6 0 14 3t12 5q6 2 14 7t12 9q2 -4 6 -9t6 -7t4 -5
t4 -3q8 0 10 2t4 6zM614 1280v0v66v11v7q0 8 -1 11t-3 7q-4 6 -9 10t-9 6q-4 6 -13 7t-13 1q-6 0 -14 -1t-12 -3q-6 -8 -10 -13t-8 -9v4q0 4 -3 6t-3 4q-2 4 -2 7t-2 3t-5 1t-5 1q-4 0 -7 -1t-5 -3q-4 -4 -5 -9t-1 -9v-104q0 -6 2 -10l4 -8q2 -2 6 -5t8 -3t6 3t4 5q8 4 9 9
t1 9v44v19v13q2 4 4 9t6 7q6 2 11 3t9 1q8 0 13 -3t7 -7t4 -12t2 -14v-60q0 -6 1 -10t3 -8l5 -5t7 -3q8 0 10 3t4 5q2 4 3 9t1 9zM778 1278v0v106q0 4 -2 10t-4 8t-4 3t-6 1q-8 0 -11 -1t-5 -3q-2 -4 -3 -9t-1 -9v-44q0 -14 -1 -23t-3 -13t-5 -7l-7 -7t-8 -5t-9 -1t-9 3
t-6 5q-4 2 -6 5t-2 7q-2 4 -2 10v10v60q0 4 -3 10t-5 8t-4 3t-6 1t-7 -1t-5 -3q-4 -4 -6 -9t-2 -9v-74q0 -10 2 -19t6 -13q2 -4 7 -8t9 -8q4 -2 12 -5t12 -3q6 0 11 2t9 4l8 4l8 4q4 6 7 8t5 6v-4q0 -4 2 -8l4 -8q2 -2 6 -5t8 -3q2 0 5 3l5 5t4 7t2 9zM940 1262v0q4 2 5 5
t1 7l-2 2q0 4 -2 8q-2 10 -2 15v9v10v10v10v12q0 10 -2 19t-4 13q-4 6 -9 12t-11 8t-16 3t-22 1q-10 0 -19 -1t-15 -3q-8 -8 -14 -11t-8 -7q-4 -4 -5 -10t-1 -10v-4t2 -4t5 -2h7q2 0 4 -1t2 1q4 2 5 4t5 6q2 2 4 6t6 6t11 3t11 1q8 0 13 -2t9 -4q2 -2 4 -9t2 -11
q-6 -4 -12 -5t-10 -3t-11 -3t-13 -3q-6 0 -9 -1t-5 -1q-10 -4 -17 -7t-11 -7q-6 -6 -9 -13t-3 -13q0 -4 3 -10t7 -10q0 -4 5 -8t9 -8q6 -2 13 -5t11 -3q8 0 16 3t12 5t13 7t13 9q4 -4 6 -9t6 -7t6 -5t4 -3q4 0 7 2t5 6zM1072 1374q2 2 2 4v6t-2 9t-6 9q-6 2 -13 3t-11 1
t-9 -1t-9 -3q-4 -6 -6 -10q-4 -6 -6 -10q0 6 -1 11t-5 9q0 2 -4 3t-8 1q-8 0 -13 -7t-5 -19v-100q0 -6 1 -10t5 -8l5 -5t7 -3t7 3t7 5q2 4 3 9t1 9v30q0 8 1 16t1 12t1 10t3 10t3 8t5 6q2 2 5 2h7h8t8 -2q2 0 4 -3t4 -3t5 3zM1216 1382v0q2 2 2 4v2v4l-2 2q-2 8 -3 9t-3 1
q-4 0 -5 1t-3 1t-6 -2h-2l-2 -4q-4 -4 -4 -6q-2 -2 -4 -6l-4 -8l-28 -84l-32 90q0 4 -2 9t-4 7q0 2 -4 3t-8 1h-4t-4 -2q-2 0 -4 -4t-4 -6l-2 -2v-4t1 -6t3 -8l46 -114l-4 -8q-4 -4 -5 -8t-1 -6q-2 -4 -4 -4t-4 -2t-4 -2h-4h-4t-2 2h-4h-4q-2 0 -5 -1t-5 -3q0 -2 -1 -4
t-1 -6t1 -8t5 -6q4 0 12 -1t14 -1t13 1t11 3q6 4 10 8t6 8q4 4 6 12t6 14l48 126l2 2v6zM1948 1570v34q0 56 -41 96t-95 40h-1574q-58 0 -98 -41t-40 -95v-34q0 56 40 96t98 40h1574q56 0 96 -41t40 -95zM860 1322v0h8t12 2t13 3t11 3v-6q0 -10 -1 -16t-5 -10q-2 -4 -6 -8
t-8 -6t-9 -3t-9 -1q-6 0 -10 1t-8 3q-2 8 -3 10t-1 6t1 7t3 5l5 5t7 5z" />
    <glyph glyph-name="event" unicode="&#xf027;" vert-adv-y="2046" 
d="M1024 832h448v-320h-448v320zM192 960v-768q0 -26 19 -45t45 -19h1536q26 0 45 18t19 46v768h-1664zM204 1792h1642q58 0 98 -42t40 -96v-538h-1920v538q0 58 43 98t97 40zM1984 1074v-926q0 -54 -40 -95t-98 -41h-1642q-54 0 -97 40t-43 96v926h1920zM1130 1252
q-2 -4 -3 -8t-3 -6q-2 -4 -4 -4t-4 -2t-4 -2h-6h-2q-2 0 -4 2h-2h-4t-5 -1t-5 -3q0 -2 -1 -5t-1 -5q0 -4 1 -8t5 -6q4 0 12 -1t14 -1q8 0 14 1t10 3q4 4 9 8t7 8q4 4 7 12t5 14l48 126q0 2 1 4t1 4q2 4 2 5v3v4t-2 4q-2 4 -3 5t-3 1q-4 0 -5 1t-3 1q-4 0 -5 -1t-3 -1l-2 -4
q-2 -4 -4 -6t-3 -6t-3 -8l-30 -84l-32 90q-2 4 -3 9t-3 7q0 2 -4 3t-8 1h-5t-3 -2q-4 0 -5 -4t-3 -6l-2 -2v-4q0 -4 1 -7t3 -7l46 -114zM1012 1310v15t2 13q0 4 1 10t3 8q2 4 4 9t4 7t6 2h6h8h8q2 -2 4 -5t4 -3q4 0 6 3t4 5t2 5v5q0 4 -2 10t-6 8q-6 2 -12 3t-10 1
q-6 0 -11 -1t-9 -3q-4 -8 -7 -12t-5 -8q0 6 -2 12t-4 8t-5 3t-7 1q-10 0 -14 -7t-4 -19v-102q0 -4 2 -9t4 -7q2 -4 5 -6t7 -2t8 3t6 5q2 4 3 8t1 8v32zM904 1330v-6q0 -10 -2 -16t-4 -10t-6 -8t-8 -6t-9 -3t-9 -1q-6 0 -11 1t-7 3q-4 8 -4 11v5q0 4 1 8t3 6q4 0 6 3t4 5h10
t12 2t13 3t11 3zM906 1278q4 -4 7 -9t5 -7q6 -4 7 -6t3 -2q4 0 7 3l5 5q4 2 5 6t1 6l-2 2q0 4 -2 8q-2 10 -2 15v9v10v10v10v12q0 10 -2 19t-4 13q-4 6 -9 12t-11 8t-16 3t-22 1q-10 0 -19 -1t-15 -3q-10 -8 -15 -11t-7 -7q-4 -4 -5 -10t-1 -10v-4t2 -4q4 -2 7 -2h5
q4 0 4 -1t2 1q4 2 6 5t4 5t4 6t6 6q6 2 12 3t10 1q8 0 14 -2t8 -4q4 -2 4 -8t2 -12q-6 -4 -12 -5t-10 -3t-11 -2t-13 -2l-9 -3t-5 -1q-12 -4 -18 -7t-10 -7q-6 -6 -9 -13t-3 -13q0 -4 4 -10t6 -10t6 -9t8 -7q4 -4 12 -6t12 -2q8 0 16 3t12 5q4 4 13 8t13 8zM742 1278
q0 -4 2 -9t4 -7q4 -4 8 -6t6 -2t5 3l5 5l4 8t2 8v106q0 4 -2 10t-4 8l-6 3t-4 1q-8 0 -11 -1t-5 -3q-4 -8 -5 -11t-1 -7v-44v-23t-2 -11q-2 -4 -6 -8t-8 -6q-2 -6 -7 -7t-9 -1t-8 3t-6 5q-4 2 -5 5t-3 7t-2 10v10v60q0 4 -3 10t-5 8t-5 3t-5 1q-4 0 -7 -1t-5 -3
q-8 -8 -8 -11v-7v-72q0 -12 3 -21t5 -13q4 -4 8 -9t8 -7q4 -4 12 -4h12h11t9 2l8 4l8 4q4 6 7 8t5 6v-4zM522 1386q0 4 -3 5t-3 3q-2 8 -3 9t-3 1t-4 1t-4 1q-4 0 -7 -1t-5 -3q-6 -8 -6 -11v-7v-106q0 -4 2 -9t4 -7q4 -4 7 -6t7 -2t6 3t4 5q8 4 9 8t1 8v46q0 10 -1 19t1 13
t4 10t6 8q6 2 11 2h9q8 0 13 -3t7 -7q4 -2 5 -11t1 -15v-62q0 -4 1 -9t3 -7l6 -6t6 -2q8 0 10 3t4 5q4 4 4 8v8v68q0 8 1 12t-1 6q0 8 -1 11t-3 7l-9 9t-9 7q-4 6 -13 7t-15 1t-13 -1t-11 -3q-6 -8 -10 -12t-8 -10v6zM414 1330v-6q0 -10 -3 -16l-5 -10l-4 -8t-6 -6
q-2 -2 -10 -3t-12 -1t-10 1t-8 3q-2 8 -3 11t-1 5q0 4 1 8t3 6q8 0 10 3t4 5h9t11 2q8 2 14 3t10 3zM416 1278q4 -4 7 -9t5 -7q4 -4 5 -6t3 -2q8 0 10 3t4 5q4 2 4 6v6v2q0 4 -2 8q-2 10 -2 15v9v10v10v10v12q0 10 -2 19t-4 13q-2 6 -8 12t-12 8t-16 3t-22 1t-21 -1t-15 -3
q-8 -8 -13 -11t-7 -7q-6 -4 -7 -10t-1 -10v-4t2 -4q6 -2 9 -2h5q4 0 6 -1t2 1q2 2 4 5t4 5q0 2 4 6t8 6t10 3t10 1q10 0 14 -2t6 -4q6 -2 7 -8t1 -12q-8 -4 -12 -5t-8 -3q-6 -2 -13 -2t-13 -2q-4 -2 -9 -3t-7 -1q-10 -4 -17 -7t-11 -7q-4 -6 -6 -13t-2 -13q0 -4 2 -10t4 -10
t7 -9t9 -7q6 -4 14 -6t12 -2q6 0 14 3t12 5q6 4 14 8t12 8zM284 1436q0 4 -3 10t-5 8q-2 4 -5 5t-7 1t-10 -2t-8 -4t-2 -8v-10v-110q0 -18 -7 -29t-19 -11q-6 0 -9 3l-5 5q-8 2 -8 5t-2 5q-2 4 -2 9t-2 9q-2 2 -3 6t-3 6q-4 0 -7 2t-5 2q-6 0 -9 -1t-5 -3q-4 -4 -4 -6v-6
v-13t2 -9t3 -9t3 -7q2 -8 10 -13t12 -7q8 -4 16 -7t18 -3t20 4t16 8q10 4 14 12t6 14q8 4 9 9t1 9v11v11v104zM236 1740q-54 0 -95 -41t-41 -95v-34q0 56 41 96t95 40h1576q56 0 96 -41t40 -95v34q0 58 -41 97t-95 39h-1576z" />
    <glyph glyph-name="bell" unicode="&#xf028;" vert-adv-y="2046" 
d="M1490.43 1792q76 -4 131 -56t55 -120q0 -54 -37 -94t-93 -54q148 -74 207 -160t59 -204q0 -34 -11 -99t-26 -144t-29 -165t-18 -162q-6 -150 84 -217t54 -161q-20 -54 -75 -106t-109 -50q-32 2 -115 25t-203 59q-18 -36 -53 -60t-81 -24q-62 0 -105 43t-43 107v15t2 15
q-74 26 -147 54q-73 28 -145 56q-130 52 -250 106t-207 111t-132 119t-27 128q14 52 53 81t91 49q74 6 183 -15t228 -60t235 -87q116 -48 198 -88q-36 36 -121 83q-85 47 -191 87t-223 72t-215 46q20 6 39 13t37 19q104 54 165 151t125 209q114 204 243 247q129 43 309 -11
q-12 20 -19 43t-7 45q0 68 54 113t130 41zM1292.43 288q28 -12 49 -36t33 -56l70 -26q110 -44 154 -45t66 35v0q26 36 -41 74t-179 82l-152 58v-86zM1156.43 284q4 2 7 2t7 2v134l-640 250q-110 44 -139 41t-55 -43v0q-26 -36 41 -74t177 -82zM1116.43 1522
q-84 -12 -147 -90q-63 -78 -119 -176t-113 -195t-135 -143l126 -22q44 52 79 137t75 176t95 176q55 85 139 137zM1492.43 1710q-36 0 -63 -26t-27 -62t26 -62t64 -26q34 0 61 25t27 63q0 34 -27 61t-61 27zM1442.43 1772q-42 -2 -90 -53t-8 -121q28 6 31 79t67 95z" />
    <glyph glyph-name="email_queue" unicode="&#xf029;" vert-adv-y="2046" 
d="M2012 1278q18 -14 27 -36t9 -48v-1110q0 -44 -32 -77t-78 -33h-1538q-44 0 -77 31t-33 79v1110q0 26 12 47t24 37l518 -616l-530 -636h4l562 588l140 -166q62 -74 148 -75t146 73l144 168l564 -588h6l-530 636zM400 1304h1538q20 0 36 -5t30 -17l-686 -720
q-62 -64 -148 -64t-150 64l-686 720q14 10 31 16t35 6zM1722 1434q14 -14 23 -31t11 -39h-90zM230 128h-120q-44 0 -77 32t-33 78v1110q0 26 10 46t26 40l194 -232v-772l-210 -250h6l204 214v-250v-8v-8zM110 1458h1538q18 0 35 -7t31 -15l-66 -72h-1308q-46 0 -78 -31
t-32 -79v-12l-186 194q14 10 30 16t36 6zM1864 1586q18 -14 29 -37t11 -47v-140q-4 2 -12 2h-16h-58v46q0 24 -8 44t-26 36zM144 1518q2 20 12 37t28 31l54 -66h-66q-6 0 -15 -1t-13 -1zM256 1614h1536q20 0 36 -7t32 -17l-86 -92q-14 10 -31 16t-35 6h-1454l-66 70
q14 10 31 17t37 7z" />
    <glyph glyph-name="outward_email" unicode="&#xf02a;" vert-adv-y="2046" 
d="M1018 94v388h436v178l466 -372l-466 -372v178h-436zM1882 1456q18 -14 27 -36t9 -46v-978l-546 438v-20l-14 16zM934 128h-694q-46 0 -79 33t-33 79v1134q0 26 10 46t26 36l526 -626l-542 -648h6l572 600l144 -170q14 -18 31 -32t33 -22v-430zM1124 564q12 6 26 18t24 26
l144 174l54 -56v-162h-248zM240 1484h1566q20 0 37 -7t33 -17l-702 -734q-62 -64 -151 -64t-153 64l-698 734q14 10 31 17t37 7z" />
    <glyph glyph-name="inward_email" unicode="&#xf02b;" vert-adv-y="2046" 
d="M1174 724q-64 -64 -151 -64t-149 64l-702 736q14 10 31 17t37 7h1568q20 0 37 -7t31 -17zM1404 694l-514 -406l204 -162h-854q-46 0 -79 34t-33 78v1136q0 24 9 46t27 36l526 -628l-542 -648h6l572 602l148 -172q60 -76 149 -76t151 74l148 174zM1884 1456q18 -16 27 -36
t9 -46v-812h-340l-16 20v244l-122 -100l-84 102zM1484 660v-178h436v-388h-436v-178l-466 372z" />
    <glyph glyph-name="breakline" unicode="&#xf02c;" vert-adv-y="2046" 
d="M522 704h600v-68h-600v68zM1262 704h400v-68h-400v68zM522 554h1074v-70h-1074v70zM522 398h804v-66h-804v66zM1460 398h202v-66h-202v66zM1326 244h404v-64h-404v64zM522 244h402v-64h-402v64zM1058 244h134v-68h-134v68zM522 1088v66h600v-66h-600zM1262 1088v66h400
v-66h-400zM522 1242v66h1208v-66h-1208zM522 1394v66h804v-66h-804zM1460 1394v66h270v-66h-270zM1326 1546v68h404v-68h-404zM522 1546v68h402v-68h-402zM1058 1546v70h134v-70h-134zM128 1120l224 -224l-224 -224v448zM396 964h1524v-142h-1524v142z" />
    <glyph glyph-name="email_template" unicode="&#xf02d;" vert-adv-y="2046" 
d="M1920 274v-34q0 -46 -33 -79t-79 -33h-1568q-46 0 -79 33t-33 79v1134q0 26 10 47t26 37l526 -628l-542 -648h6l572 600l38 -38v-376q0 -42 28 -70t68 -28h948l86 -88h6l-76 88h64h16t16 4zM240 1484h524v-640l-592 618q14 10 31 16t37 6zM1920 1266h-304q-44 0 -73 30
t-29 68v310zM886 1674h552v-310q0 -34 14 -66t38 -54q24 -24 56 -39t70 -15h304v-792q0 -26 -18 -43t-42 -17h-974q-24 0 -41 17t-17 43v1214q0 26 17 44t41 18zM1148 1412h250v60h-250v-60zM958 1412h148v60h-148v-60zM1318 1246h62v60h-62v-60zM958 1246h318v60h-318v-60z
M1500 1078h292v62h-292v-62zM958 1078h486v62h-486v-62zM958 912h486v62h-486v-62zM1500 912h292v62h-292v-62zM1644 746h148v58h-148v-58zM958 746h642v58h-642v-58zM958 578h834v62h-834v-62zM1484 412h308v62h-308v-62zM958 412h486v62h-486v-62z" />
    <glyph glyph-name="email_template_mapping" unicode="&#xf02e;" vert-adv-y="2046" 
d="M1332 1114q6 6 12 18t6 26q0 12 -4 24t-14 20q-6 6 -19 12t-27 6t-24 -3t-18 -15q-6 -6 -13 -19t-7 -25q0 -14 4 -25t16 -19q6 -6 18 -13t24 -7t24 5t22 15zM1500 1158v-7v-9q-2 -4 -5 -16l-9 -36q-4 -20 -12 -44t-18 -52q-10 -26 -27 -62t-39 -84q-20 -46 -46 -98
t-58 -108q-30 54 -56 107t-46 99q-22 46 -38 82t-26 64q-10 26 -18 51t-14 45q-4 20 -9 32t-5 20v16q0 44 15 81t47 69t70 48t82 16t81 -16t69 -48t47 -69t15 -81zM1148 1412h14l8 4l8 4q26 12 53 17t55 5t57 -4t51 -18h2h2v52h-250v-60zM958 1412h148v60h-148v-60z
M958 1246h56q2 4 4 10t6 10q4 10 9 20t11 20h-86v-60zM1558 1078h234v62h-220q-2 -2 -2 -3v-3q0 -4 -1 -10t-3 -16q-2 -4 -4 -12t-4 -18zM958 1078h56q-4 20 -6 33t-4 25v4h-46v-62zM958 912h116q-6 16 -12 31t-8 31v0h-96v-62zM1500 912h292v62h-270v-4q-4 -12 -10 -26
t-12 -30v-2zM1644 746h148v58h-148v-58zM1420 746q6 16 16 30t16 28h148v-58h-180zM958 746h196q-6 14 -13 29t-17 29h-166v-58zM1334 578h458v62h-428q-2 -6 -6 -14t-8 -18zM958 578h284l-18 30q-4 6 -7 16t-11 16h-248v-62zM1484 412h308v62h-308v-62zM958 412h486v62
h-486v-62zM886 1674h552v-272q-10 4 -21 8t-23 10q-26 12 -53 17t-55 5q-30 0 -56 -4t-52 -18q-26 -10 -48 -25t-44 -37q-20 -20 -36 -42t-26 -50q-10 -26 -15 -53t-5 -55v-8v-14q2 -10 5 -27t11 -39q2 -10 6 -22q4 -14 8 -24q4 -14 8 -27t12 -23q4 -14 10 -32t18 -38
q4 -16 14 -37t22 -49q12 -26 24 -51t26 -49q12 -26 25 -53t31 -57l62 -116l64 116q16 30 30 58l26 52q14 24 26 50t24 50q12 26 21 46t17 40q6 20 14 36t14 30q4 14 9 27t9 25q4 14 8 26t8 22q2 12 5 21t5 17q2 6 3 14t1 12q2 4 2 7v5v5v7v17t-2 21q10 -2 22 -4t24 -2h304
v-792q0 -26 -18 -43t-42 -17h-974q-24 0 -41 17t-17 43v1214q0 26 17 44t41 18zM1920 1266h-304q-44 0 -73 30t-29 68v310zM240 1484h524v-640l-592 618q14 10 31 16t37 6zM1920 274v-34q0 -46 -33 -79t-79 -33h-1568q-46 0 -79 33t-33 79v1134q0 26 10 47t26 37l526 -628
l-542 -648h6l572 600l38 -38v-376q0 -42 28 -70t68 -28h948l86 -88h6l-76 88h64h16t16 4z" />
    <glyph glyph-name="product" unicode="&#xf02f;" vert-adv-y="2046" 
d="M1442 1136q0 -42 -13 -76t-35 -66h-740q-20 30 -34 61t-14 63q0 34 22 60t54 32q26 10 57 7t55 -21v0q16 -12 29 -27t19 -33v0q6 -16 15 -30t19 -28v0q8 -10 22 -20t28 -14v0q22 -8 45 -11t49 -3q34 0 67 7t61 23q16 10 28 24t12 34q0 16 -6 27t-12 17q-6 2 -15 8t-15 8
q-20 10 -44 16t-46 10q-6 0 -36 8t-34 8q-26 4 -52 12t-48 12q-38 8 -79 23t-75 35q-50 32 -76 77t-26 105t31 109t81 81q28 12 61 27t65 21v130q0 26 21 47t51 21q28 0 49 -20t21 -48v-118h40v118q0 26 21 47t49 21q30 0 51 -20t21 -48v-134q32 -10 62 -23t56 -31v0
q10 -10 23 -19t19 -15q20 -24 38 -54t18 -62t-22 -60t-52 -40q-20 -4 -42 -4t-40 4t-31 15t-25 25q-4 2 -11 13t-11 17q-4 8 -12 18t-14 16q-8 6 -15 14t-13 12t-18 8t-22 6q-30 6 -66 5t-64 -5q-18 -4 -38 -15t-32 -25q-8 -10 -7 -22t7 -18v0q16 -16 42 -27t46 -15v0
q16 -2 44 -10t48 -12v0q40 -6 78 -15t74 -19v0q36 -8 66 -20t56 -28v0q26 -18 47 -36t37 -42q16 -28 23 -57t7 -61zM1620 1494l286 -214l142 -498l-286 212zM428 1494l-142 -500l-286 -212l142 498zM1974 654h-1900l212 340h1476zM1738 584l-72 -712h-1282l-74 712h1428z
M560 252q-26 0 -43 -20t-17 -46v-132q0 -26 17 -45t43 -19h428q26 0 42 19t16 45v132q0 28 -16 47t-42 19h-428zM566 202h12v-158h-12v158zM608 202h10v-158h-10v158zM770 202h10v-158h-10v158zM810 202h10v-158h-10v158zM850 202h10v-158h-10v158zM890 202h10v-158h-10v158
zM688 70h10v-26h-10v26zM688 202h10v-122h-10v122zM970 70h10v-26h-10v26zM970 202h10v-122h-10v122zM642 70h22v-26h-22v26zM642 202h22v-122h-22v122zM924 70h22v-26h-22v26zM924 202h22v-122h-22v122zM724 70h20v-26h-20v26zM724 202h20v-122h-20v122zM342 994l126 444
v-444h-126zM1580 994v444l126 -444h-126zM880 1190q22 -4 44 -10t42 -10q38 -6 65 -14t55 -14v0l16 -4t12 -4v0q2 -4 7 -7t9 -5v0v-2q0 -4 -6 -8t-8 -6q-10 -4 -21 -9t-23 -7q-22 -4 -59 -5t-59 9q-10 6 -18 11t-12 9q-10 10 -18 24t-12 26v0q-4 6 -8 13t-6 13zM1070 1494
q14 -4 27 -18t17 -24l-24 4l-24 4v0q-26 4 -45 10t-45 12q-12 2 -19 4t-13 4q2 2 5 2t5 2h116zM1472 994q12 28 17 59t5 63q0 58 -19 111t-63 97q-8 8 -21 19t-27 17q38 20 63 55t27 79h62v-500h-44zM532 1494h42q-4 -4 -4 -10v-10q0 -70 30 -124t84 -98q-22 -4 -41 -14
t-37 -24v0q-26 -20 -39 -52t-13 -64q0 -28 6 -54t16 -50h-44v500z" />
    <glyph glyph-name="product_ticketbase" unicode="&#xf030;" vert-adv-y="2046" 
d="M1386 384v0h592q8 0 15 -3t11 -7l-264 -276q-24 -24 -58 -24t-58 24l-264 276q4 4 12 7t14 3zM2004 374v0q10 -6 13 -14t3 -18v-426q0 -20 -12 -32t-30 -12h-592q-14 0 -28 13t-14 31v426q0 10 5 19t9 13l198 -240l-202 -242v0l216 224l54 -62q24 -28 58 -28t56 28l56 62
l218 -224h2l-206 242zM532 1494h42q0 -4 -2 -8t-2 -12q0 -68 29 -124t85 -98q-20 -4 -40 -14t-38 -24v0q-24 -22 -38 -51t-14 -65q0 -26 5 -52t17 -52h-44v500v0zM1472 994q12 28 17 60t5 62q0 60 -19 111t-61 97q-12 10 -25 20t-25 16q34 20 61 57t29 77h62v-500h-44z
M1072 1494q12 -4 24 -19t18 -29q-12 4 -24 7t-24 7v0q-26 4 -44 8t-46 14q-6 2 -14 4t-18 4q2 2 4 2t6 2h118v0zM880 1190q22 -4 44 -10t46 -10q30 -4 59 -12t57 -16v0q6 -2 13 -4t15 -4v0l7 -7t9 -5v0v-2q0 -4 -5 -7t-9 -7q-10 -4 -21 -9t-23 -7q-22 -4 -60 -4t-58 8
q-6 2 -16 8t-14 12q-6 10 -15 23t-15 27v0q-4 4 -7 11t-7 15v0zM1580 994v444l126 -444h-126zM342 994l126 444v-444h-126v0zM724 202h20v-122h-20v122zM724 70h20v-26h-20v26zM924 202h22v-122h-22v122zM924 70h22v-26h-22v26zM642 202h22v-122h-22v122zM642 70h22v-26h-22
v26zM970 202h10v-122h-10v122zM970 70h10v-26h-10v26zM688 202h10v-122h-10v122zM688 70h10v-26h-10v26zM890 202h10v-158h-10v158zM850 202h10v-158h-10v158zM810 202h10v-158h-10v158zM770 202h8v-158h-8v158zM608 202h10v-158h-10v158zM566 202h12v-158h-12v158zM560 252
q-26 0 -43 -20t-17 -46v-132q0 -28 17 -46t43 -18h428q26 0 42 19t16 45v132q0 26 -16 46t-42 20h-428v0zM1738 584l-12 -136h-392q-24 0 -39 -16t-15 -38v-522h-896l-74 712h1428v0zM1978 654h-1904l212 340h1476zM428 1494l-142 -500l-286 -212l142 498l286 214v0z
M1620 1494l286 -214l142 -498l-286 212zM1442 1136q0 -36 -11 -73t-37 -69h-740q-22 26 -35 58t-13 66q0 32 20 57t56 35q28 10 58 7t54 -21v0q16 -12 27 -27t21 -33v0q6 -16 15 -30t19 -28v0q10 -10 23 -19t27 -15v0q20 -6 44 -10t50 -4q34 0 67 6t61 24q18 10 29 24t11 34
q0 14 -4 24t-14 20q-4 4 -13 8t-17 8q-18 10 -43 16t-47 10q-4 0 -35 8t-35 8q-28 4 -52 9t-48 15q-42 10 -79 24t-75 36q-48 32 -75 76t-27 104t31 109t81 81q28 16 60 27t66 21v130q0 28 21 48t51 20q28 0 50 -21t22 -47v-118h38v118q0 28 21 48t49 20q30 0 51 -21t21 -47
v-134q32 -10 62 -23t56 -31v0q12 -6 21 -14t21 -20q22 -24 39 -54t17 -62t-22 -59t-52 -41q-18 -4 -41 -5t-41 3t-31 14t-25 28q-4 4 -11 12t-11 18t-11 18t-15 16q-4 6 -13 13t-15 13q-4 4 -17 8t-23 6q-26 4 -63 5t-65 -5q-20 -4 -41 -14t-31 -26q-6 -10 -7 -21t7 -19v0
q16 -16 42 -26t46 -16v0q16 -4 44 -10t48 -12v0q42 -6 79 -14t73 -20v0q32 -6 63 -19t59 -29v0q26 -14 46 -34t38 -44q16 -26 23 -56t7 -62v0z" />
    <glyph glyph-name="product_timebase" unicode="&#xf031;" vert-adv-y="2046" 
d="M1442 1136v0q0 -42 -12 -77t-36 -65h-740q-20 28 -34 59t-14 65q0 32 22 57t54 35q26 10 57 7t55 -21v0q16 -12 29 -27t19 -33v0q6 -16 15 -30t19 -28v0q8 -10 22 -20t28 -14v0q20 -8 44 -11t50 -3q34 0 67 6t61 24q16 10 28 24t12 34q0 16 -4 27t-14 17q-6 2 -15 7
t-15 9q-18 10 -43 16t-47 10q-6 0 -36 8t-34 8q-26 4 -51 12t-49 12q-38 8 -79 23t-75 37q-44 30 -73 75t-29 105t31 109t81 81q28 12 60 27t66 21v130q0 26 21 47t51 21q28 0 49 -20t21 -48v-118h40v118q0 26 21 47t49 21q30 0 51 -20t21 -48v-134q32 -10 62 -23t56 -31v0
q10 -10 21 -17t21 -17q20 -24 38 -53t18 -63q0 -32 -22 -60t-52 -40q-20 -4 -42 -4t-40 4t-31 14t-25 26q-4 2 -11 13t-11 17q-4 8 -13 18t-13 16l-14 14t-14 12t-18 8t-22 6q-28 6 -65 5t-65 -5q-18 -4 -38 -14t-32 -26q-8 -10 -7 -22t7 -18v0q16 -16 41 -27t47 -15v0
q16 -2 44 -10t48 -12v0q40 -6 78 -14t74 -20v0q36 -6 65 -19t57 -29v0q26 -14 47 -34t37 -44q16 -26 23 -56t7 -62v0zM1620 1494l286 -214l142 -498l-286 212l-142 500v0zM428 1494l-142 -500l-286 -212l142 498zM1974 654h-1900l212 340h1476zM1738 584v0l-4 -56q-4 2 -6 4
t-4 2q-8 8 -15 13t-17 9q-12 6 -21 10t-21 8q-8 0 -21 1t-23 1q-16 0 -34 -5t-36 -9q-16 -8 -31 -17t-27 -21q-12 -14 -23 -29t-17 -31q-4 -18 -9 -35t-5 -35v-16t2 -12q0 -4 2 -11t2 -11q4 -6 5 -13t5 -11l5 -10t7 -10l2 -8v-2v-4q-16 -32 -23 -65t-7 -67q0 -38 8 -71
t22 -65q10 -30 28 -58t42 -52q12 -10 23 -20t23 -16h-1186l-74 712h1428zM560 252v0q-26 0 -43 -20t-17 -46v-132q0 -24 17 -44t43 -20h430q24 0 40 19t16 45v132q0 26 -16 46t-40 20h-430zM566 202h12v-158h-12v158zM608 202h10v-158h-10v158zM770 202h10v-158h-10v158z
M810 202h10v-158h-10v158zM850 202h10v-158h-10v158zM890 202h10v-158h-10v158zM688 70h10v-26h-10v26zM688 202h10v-124h-10v124zM970 70h10v-26h-10v26zM970 202h10v-124h-10v124zM642 70h22v-26h-22v26zM642 202h22v-124h-22v124zM924 70h22v-26h-22v26zM924 202h22v-124
h-22v124zM724 70h20v-26h-20v26zM724 202h20v-124h-20v124zM342 994l126 444v-444h-126zM1580 994v444l126 -444h-126zM880 1190v0v0q22 -6 43 -11t43 -9q36 -6 64 -14t56 -14v0l16 -4t12 -4v0q2 -4 7 -6t9 -6v0v-2q0 -4 -5 -7t-9 -7q-10 -6 -21 -9t-23 -7q-22 -4 -59 -5
t-59 9q-10 4 -18 10t-12 10q-10 10 -18 24t-12 26v0q-4 4 -7 12t-7 14zM1070 1494v0q14 -4 27 -18t17 -24q-12 2 -24 3t-24 5v0q-26 4 -45 11t-45 11q-10 2 -18 4t-14 4q2 2 5 2t5 2h116zM1472 994v0q12 30 17 61t5 61q0 58 -19 111t-63 97q-8 8 -22 19t-26 17q38 20 62 55
t28 79h62v-500h-44zM532 1494v0h42q0 -6 -2 -11t-2 -9q0 -70 30 -124t84 -98q-22 -4 -41 -14t-37 -24v0q-24 -20 -38 -51t-14 -65q0 -26 6 -53t16 -51h-44v500zM1766 432v0v0q30 0 58 -5t52 -17q28 -10 50 -25t40 -35q20 -18 35 -41t25 -47q12 -26 17 -52t5 -56t-5 -58
t-17 -52q-10 -26 -25 -48t-35 -42q-18 -18 -41 -33t-49 -27q-22 -8 -52 -15t-58 -7q-26 0 -54 6t-52 16q-26 12 -48 27t-42 33q-20 20 -35 42t-25 48q-12 24 -17 53t-5 57t5 55t17 53q10 24 25 47t35 41q20 20 42 35t48 25q24 12 51 17t55 5zM1766 -74v0q26 0 47 5t43 15
q20 8 37 21t32 29t27 30q12 16 22 38q10 20 15 43t5 47q0 22 -7 44t-13 42q-8 20 -21 39t-27 35q-12 10 -31 24t-39 24q-22 6 -44 11t-46 5q-22 0 -43 -5t-43 -11q-20 -12 -39 -23t-35 -25q-12 -20 -24 -37t-21 -37t-14 -41t-5 -45q0 -26 7 -48t13 -42q8 -20 19 -36t25 -32
l36 -32q18 -12 38 -18q22 -10 42 -15t44 -5zM2032 334v0v0q-8 12 -18 23t-20 23q-10 10 -23 21t-25 17q-12 10 -26 18t-28 12q-14 6 -29 10t-29 8q4 8 10 11t10 7q2 6 9 9t11 7q8 2 15 5t11 3q6 2 13 3t13 1q14 0 26 -3t22 -7q12 -4 21 -10t19 -16q8 -8 14 -18t10 -22
q6 -8 8 -19t2 -23v-11t-2 -9q0 -2 -1 -5t-1 -7q0 -6 -2 -9t-4 -7q0 -2 -2 -6t-4 -6zM1704 466v0v0q-18 -4 -32 -9t-28 -9t-28 -12t-26 -18q-12 -8 -24 -18l-24 -20q-8 -12 -20 -23t-18 -23q-2 2 -4 6t-2 6q-4 4 -4 9t-2 7q0 2 -1 5t-1 7q-2 6 -2 11v9q0 10 3 21t7 21
q4 14 11 24t13 16q12 8 21 15t21 11q8 6 19 8t23 2q10 0 18 -1t12 -3q8 0 15 -3t11 -5l12 -8t10 -8q8 -2 12 -8t8 -10zM1728 314h38v-202h-38v202zM1766 154v-42h122v42h-122z" />
    <glyph glyph-name="product_chatbase" unicode="&#xf032;" vert-adv-y="2046" 
d="M1936 448v0q34 0 61 -26t27 -60v-246q0 -34 -26 -60t-62 -26h-12q4 -22 19 -41t29 -33q4 -6 -17 -12t-45 6q-26 10 -51 30t-49 50h-226q-34 0 -62 26t-28 60v246q0 34 27 60t63 26h352v0zM1744 -14v0v-20q0 -18 -13 -32t-33 -14h-150q-14 -16 -31 -28t-35 -16
q-16 -2 -30 1t-10 7q10 6 19 15t13 21h-20q-18 0 -32 14t-14 32v172q0 18 14 32t32 14v-68q0 -52 38 -91t92 -39h160zM532 1494h42q0 -4 -2 -8t-2 -12q0 -70 29 -125t85 -97q-22 -4 -41 -14t-37 -24v0q-24 -22 -38 -51t-14 -65q0 -26 5 -52t17 -52h-44v500v0zM1472 994v0
q12 28 17 60t5 62q0 60 -19 112t-63 96q-10 10 -23 20t-25 16q34 20 61 57t29 77h62v-500h-44v0zM1070 1494v0q14 -4 26 -19t18 -23q-12 2 -24 3t-24 5v0q-26 4 -44 9t-46 13q-6 2 -14 4t-18 4q2 2 4 2t6 2h116v0zM880 1190v0q22 -4 44 -10t42 -10q32 -4 62 -12t58 -16v0
q6 -2 13 -4t15 -4v0l7 -7t9 -5v0v-2q0 -4 -5 -7t-9 -7q-10 -4 -21 -8t-23 -8q-22 -4 -60 -4t-58 8q-6 2 -16 8t-14 12q-6 10 -15 23t-15 27v0q-4 4 -7 11t-7 15v0zM1580 994v444l126 -444h-126zM342 994l126 444v-444h-126zM724 202h20v-124h-20v124zM724 70h20v-26h-20v26z
M924 202h22v-124h-22v124zM924 70h22v-26h-22v26zM642 202h22v-124h-22v124zM642 70h22v-26h-22v26zM970 202h10v-124h-10v124zM970 70h10v-26h-10v26zM688 202h10v-124h-10v124zM688 70h10v-26h-10v26zM890 202h10v-158h-10v158zM850 202h10v-158h-10v158zM810 202h10v-158
h-10v158zM770 202h10v-158h-10v158zM608 202h10v-158h-10v158zM566 202h12v-158h-12v158zM560 252v0q-26 0 -43 -20t-17 -46v-132q0 -26 17 -45t43 -19h430q24 0 40 20t16 44v132q0 26 -16 46t-40 20h-430zM1738 584l-6 -72h-148q-62 0 -106 -45t-44 -105v-118
q-36 -6 -63 -36t-27 -70v-172q0 -24 9 -44t25 -34v-8v-6v0v-2h-994l-74 712h1428v0zM1974 654h-1900l212 340h1476zM428 1494l-142 -500l-286 -212l142 498l286 214v0zM1620 1494v0l286 -214l142 -498l-286 212zM1442 1136q0 -42 -11 -76t-37 -66h-740q-22 26 -35 58t-13 66
q0 32 20 57t56 35q28 10 58 7t54 -21v0q16 -12 27 -27t21 -33v0q6 -16 15 -30t19 -28v0q10 -10 23 -19t27 -15v0q20 -6 44 -10t50 -4q34 0 67 7t61 23q16 10 28 24t12 34q0 14 -4 24t-14 20q-4 4 -13 8t-17 8q-18 10 -43 16t-47 10q-4 0 -35 8t-35 8q-28 4 -52 9t-48 15
q-42 10 -79 24t-75 36q-48 32 -75 76t-27 104t31 109t81 81q28 16 60 27t66 21v130q0 28 21 48t51 20q28 0 49 -21t21 -47v-118h40v118q0 28 21 48t49 20q30 0 51 -21t21 -47v-134q32 -10 62 -23t56 -31v0q12 -6 21 -14t21 -20q22 -22 39 -53t17 -63t-22 -59t-52 -41
q-20 -4 -42 -5t-40 5q-18 4 -31 14t-25 26q-4 4 -11 12t-11 18t-12 18t-14 16q-4 6 -13 13t-15 13q-4 4 -17 8t-23 6q-26 4 -63 5t-67 -5q-18 -4 -39 -14t-31 -26q-4 -10 -6 -21t6 -19v0q16 -16 41 -26t47 -16v0q16 -4 44 -10t48 -12v0q42 -6 79 -14t73 -20v0q32 -6 63 -19
t59 -29v0q26 -14 46 -34t38 -44q16 -26 23 -56t7 -62v0v0z" />
    <glyph glyph-name="product_callbase" unicode="&#xf033;" vert-adv-y="2046" 
d="M1742 -128v0q-28 24 -55 50t-51 54q-24 30 -46 64l-44 68q-20 34 -36 69t-28 69t-24 71t-16 77q16 26 34 47t40 39q14 -10 25 -22t21 -26q14 -24 19 -52t5 -60l-6 -4q-24 -12 -15 -57t53 -115q42 -70 74 -99t52 -15l10 4q26 -18 45 -39t35 -43q6 -14 13 -29t11 -31
q-30 -10 -58 -15t-58 -5v0zM1872 -100v0q-4 16 -10 31t-16 27q-16 26 -35 48t-45 38l16 8q34 18 65 5t57 -59q10 -16 14 -30t2 -22q-2 -10 -11 -19t-23 -17l-14 -10v0zM1604 330v0q0 30 -7 57t-23 55q-4 12 -15 24t-25 24l12 8q16 6 29 11t23 1q6 -2 17 -13t21 -27
q26 -46 21 -80t-41 -52l-12 -8v0zM532 1494h42q0 -4 -2 -8t-2 -12q0 -70 29 -125t85 -97q-22 -4 -41 -14t-37 -24v0q-24 -22 -38 -51t-14 -65q0 -26 5 -52t17 -52h-44v500v0zM1472 994v0q12 28 17 60t5 62q0 60 -19 112t-63 96q-10 10 -23 20t-25 16q34 20 61 57t29 77h62
v-500h-44v0zM1070 1494v0q14 -4 26 -19t18 -23q-12 2 -24 3t-24 5v0q-26 4 -44 9t-46 13q-6 2 -14 4t-18 4q2 2 4 2t6 2h116v0zM880 1190v0q22 -4 44 -10t42 -10q32 -4 62 -12t58 -16v0q6 -2 13 -4t15 -4v0l7 -7t9 -5v0v-2q0 -2 -5 -6t-9 -8q-10 -4 -21 -8t-23 -8
q-22 -4 -60 -4t-58 8q-6 2 -16 8t-14 12q-6 10 -15 23t-15 27v0q-4 4 -7 11t-7 15v0zM1580 994v444l126 -444h-126zM342 994l126 444v-444h-126zM724 202h20v-124h-20v124zM724 70h20v-26h-20v26zM924 202h22v-124h-22v124zM924 70h22v-26h-22v26zM642 202h22v-124h-22v124z
M642 70h22v-26h-22v26zM970 202h10v-124h-10v124zM970 70h10v-26h-10v26zM688 202h10v-124h-10v124zM688 70h10v-26h-10v26zM890 202h10v-158h-10v158zM850 202h10v-158h-10v158zM810 202h10v-158h-10v158zM770 202h10v-158h-10v158zM608 202h10v-158h-10v158zM566 202h12
v-158h-12v158zM560 252v0q-26 0 -43 -20t-17 -46v-132q0 -26 17 -45t43 -19h430q24 0 40 20t16 44v132q0 26 -16 46t-40 20h-430zM1716 364l-22 -222q-4 10 -11 19t-9 15q-6 12 -23 43t-23 51l14 6l8 8q28 16 44 36t22 44v0v0zM1738 584l-14 -172q-2 22 -11 45t-19 45
q-14 22 -32 42t-46 30q-24 6 -48 -1t-46 -15q-32 -18 -47 -31t-41 -37q-14 -16 -27 -31t-21 -35l-12 -20l4 -24q6 -42 17 -79t25 -77q14 -42 32 -77t40 -73q20 -34 45 -70t51 -68l28 -32t30 -32h-1262l-74 712h1428v0zM1974 654h-1900l212 340h1476l212 -340v0zM428 1494
l-142 -500l-286 -212l142 498zM1620 1494v0l286 -214l142 -498l-286 212zM1442 1136q0 -42 -11 -76t-37 -66h-740q-22 26 -35 58t-13 66q0 32 20 57t56 35q28 10 58 7t54 -21v0q16 -12 27 -27t21 -33v0q6 -16 15 -30t19 -28v0q10 -10 23 -19t27 -15v0q20 -6 44 -10t50 -4
q34 0 67 7t61 23q16 10 28 24t12 34q0 14 -4 24t-14 20q-4 4 -13 8t-17 8q-18 10 -43 16t-47 10q-4 0 -35 8t-35 8q-28 4 -52 9t-48 15q-42 10 -79 24t-75 36q-48 32 -75 76t-27 104t31 109t81 81q28 16 60 27t66 21v130q0 28 21 48t51 20q28 0 49 -21t21 -47v-118h40v118
q0 28 21 48t49 20q30 0 51 -21t21 -47v-134q32 -10 62 -23t56 -31v0q12 -6 21 -14t21 -20q22 -22 39 -53t17 -63t-22 -59t-52 -41q-20 -4 -42 -5t-40 5q-18 4 -31 14t-25 26q-4 4 -11 12t-11 18t-12 18t-14 16q-4 6 -13 13t-15 13q-4 4 -17 8t-23 6q-26 4 -63 5t-67 -5
q-18 -4 -39 -14t-31 -26q-4 -10 -6 -21t6 -19v0q16 -16 41 -26t47 -16v0q16 -4 44 -10t48 -12v0q42 -6 79 -14t73 -20v0q32 -6 63 -19t59 -29v0q26 -14 46 -34t38 -44q16 -26 23 -56t7 -62v0v0z" />
    <glyph glyph-name="product_settings" unicode="&#xf034;" vert-adv-y="2046" 
d="M1728 306v0q-48 0 -81 -33t-33 -81t33 -81t81 -33t81 33t33 81t-33 81t-81 33zM1682 512h92q10 0 16 -7t6 -15l10 -58q6 -4 17 -8t19 -8l48 34q6 4 16 6t16 -6l64 -64q6 -4 7 -13t-7 -19l-34 -48q4 -6 8 -15t8 -21l58 -10q6 0 14 -7t8 -15v-94q0 -10 -7 -15t-15 -5
l-58 -10q-4 -6 -8 -18t-8 -18l34 -48q4 -6 6 -16t-6 -16l-64 -62q-4 -6 -14 -8t-18 8l-48 32q-6 -4 -17 -8t-19 -8l-10 -58q0 -6 -6 -14t-16 -8h-92q-10 0 -16 7t-6 15l-10 58q-10 4 -19 9t-17 7l-48 -32q-6 -4 -16 -7t-16 7l-64 62q-6 4 -6 14t6 18l34 48q-4 6 -8 17t-8 19
l-58 10q-6 0 -14 5t-8 15v94q0 10 7 16t15 6l58 10q4 10 8 19t8 17l-34 48q-4 6 -6 16t6 16l64 64q4 6 14 5t18 -5l48 -34q6 4 17 8t19 8l10 58q0 6 7 14t15 8v0v0zM532 1494h42q0 -4 -2 -8t-2 -12q0 -70 29 -125t85 -97q-22 -4 -41 -14t-37 -24v0q-24 -22 -38 -51t-14 -65
q0 -26 5 -52t17 -52h-44v500v0zM1472 994v0q12 28 17 60t5 62q0 60 -19 112t-63 96q-10 10 -23 20t-25 16q34 20 61 57t29 77h62v-500h-44v0zM1070 1494v0q14 -4 26 -19t18 -23q-12 2 -24 3t-24 5v0q-26 4 -44 9t-46 13q-6 2 -14 4t-18 4q2 2 4 2t6 2h116v0zM880 1190v0
q22 -4 44 -10t42 -10q32 -4 62 -12t58 -16v0q6 -2 13 -4t15 -4v0l7 -7t9 -5v0v-2q0 -4 -5 -7t-9 -7q-10 -4 -21 -8t-23 -8q-22 -4 -60 -4t-58 8q-6 2 -16 8t-14 12q-6 10 -15 23t-15 27v0q-4 4 -7 11t-7 15v0zM1580 994v444l126 -444h-126zM342 994l126 444v-444h-126z
M724 202h20v-124h-20v124zM724 70h20v-26h-20v26zM924 202h22v-124h-22v124zM924 70h22v-26h-22v26zM642 202h22v-124h-22v124zM642 70h22v-26h-22v26zM970 202h10v-124h-10v124zM970 70h10v-26h-10v26zM688 202h10v-124h-10v124zM688 70h10v-26h-10v26zM890 202h10v-158
h-10v158zM850 202h10v-158h-10v158zM810 202h10v-158h-10v158zM770 202h10v-158h-10v158zM608 202h10v-158h-10v158zM566 202h12v-158h-12v158zM560 252v0q-26 0 -43 -20t-17 -46v-132q0 -26 17 -45t43 -19h430q24 0 40 20t16 44v132q0 26 -16 46t-40 20h-430zM1600 -128
h-12q2 2 5 3t5 1v-2l2 -2v0v0zM1738 584v-8h-56q-32 0 -55 -21t-29 -49q-26 16 -55 13t-55 -23l-64 -64q-22 -24 -24 -54t14 -56q-30 -4 -50 -28t-20 -56v-94q0 -32 20 -54t50 -28q-16 -26 -13 -56t23 -54l64 -64q4 -4 11 -9t15 -7h-1130l-74 712h1428v0zM1974 654h-1900
l212 340h1476zM428 1494l-142 -500l-286 -212l142 498l286 214v0zM1620 1494v0l286 -214l142 -498l-286 212zM1442 1136q0 -42 -11 -76t-37 -66h-740q-22 26 -35 58t-13 66q0 32 20 57t56 35q28 10 58 7t54 -21v0q16 -12 27 -27t21 -33v0q6 -16 15 -30t19 -28v0
q10 -10 23 -19t27 -15v0q20 -6 44 -10t50 -4q34 0 67 7t61 23q16 10 28 24t12 34q0 14 -4 24t-14 20q-4 4 -13 8t-17 8q-18 10 -43 16t-47 10q-4 0 -35 8t-35 8q-28 4 -52 9t-48 15q-42 10 -79 24t-75 36q-48 32 -75 76t-27 104t31 109t81 81q28 16 60 27t66 21v130
q0 28 21 48t51 20q28 0 49 -21t21 -47v-118h40v118q0 28 21 48t49 20q30 0 51 -21t21 -47v-134q32 -10 62 -23t56 -31v0q12 -6 21 -14t21 -20q22 -22 39 -53t17 -63t-22 -59t-52 -41q-20 -4 -42 -5t-40 5q-18 4 -31 14t-25 26q-4 4 -11 12t-11 18t-12 18t-14 16q-4 6 -13 13
t-15 13q-4 4 -17 8t-23 6q-26 4 -63 5t-67 -5q-18 -4 -39 -14t-31 -26q-4 -10 -6 -21t6 -19v0q16 -16 41 -26t47 -16v0q16 -4 44 -10t48 -12v0q42 -6 79 -14t73 -20v0q32 -6 63 -19t59 -29v0q26 -14 46 -34t38 -44q16 -26 23 -56t7 -62v0v0z" />
    <glyph glyph-name="payment_gateway" unicode="&#xf035;" vert-adv-y="2046" 
d="M1620 1834q22 4 43 -1t41 -19t31 -32t15 -42l134 -758l-2 2h-4l-2 2v2l-20 6h-2h-2l-8 4h-2l-2 4l-10 2h-6l-6 2l-12 4h-2l-16 4h-2l-68 384l-1158 -204l14 -64h-94l-66 374q-4 24 0 45t18 41q14 18 32 30t42 16zM524 1546q-4 0 -9 -2t-9 -6q-2 -4 -3 -9t-1 -9l28 -156
l1156 204l-24 156q-2 4 -5 7t-5 9q-4 2 -7 3t-9 1zM886 1130l230 40l8 -40h-238zM1374 1086q24 0 43 -9t37 -23q12 -10 18 -25t12 -27v0v0l-2 -4l-10 -4h-2h-4l-6 -2l-2 -2h-2l-12 -4v-2l-4 -2l-10 -4l-16 -4v-4l-2 -6l-8 -4v0l-6 -2l-4 -4v20q0 4 -1 7t-5 7q-2 4 -7 5t-7 1
h-1132q-4 0 -8 -1t-10 -5q-4 -2 -5 -6t-1 -8v-160h1140v-172h-1140v-528q0 -4 2 -8l4 -8t8 -6t10 -2h904l2 -4v-2l2 -2l2 -4v-2l2 -2v-4l8 -6v-2l2 -2v-2v0v-4h4v-2l6 -6v-2h4v0h2v-2h2v-6l4 -2h2v0h2v-2l6 -2v-2h4l4 -4l10 -4l10 -4l18 -4v-2l10 -6l16 -2l6 -2h-1032
q-24 0 -44 9t-36 25q-18 16 -26 36t-8 44v860q0 24 8 43t26 37q16 16 36 24t44 8h1132zM308 402h456v-60h-456v60zM308 524h456v-62h-456v62zM1920 368v-92q0 -44 -77 -72t-181 -28h-26t-22 2v90q12 -2 23 -2h25q44 0 83 4t69 16q4 2 12 3t12 5q36 14 59 33t23 41zM1920 578
v-20q0 -44 -77 -74t-181 -30q-108 0 -183 30t-75 74v110q0 -14 9 -28t27 -26q12 -6 29 -14t37 -14q32 -6 71 -14t85 -8q44 0 83 6t69 16q4 2 12 3t12 5q36 14 59 32t23 42v-90zM1662 980q106 0 182 -29t76 -73t-77 -74t-181 -30q-108 0 -183 30t-75 74t75 73t183 29z
M1920 818v-92q0 -44 -77 -72t-181 -28q-108 0 -183 30t-75 70v92q0 -14 9 -27t27 -25q12 -6 29 -15t37 -15q32 -6 71 -13t85 -7q44 0 83 4t69 16q4 2 12 3t12 5q36 14 59 33t23 41zM1920 516v-88q0 -44 -77 -74t-181 -30h-26t-22 2v18q0 24 -14 43t-38 37q24 -4 48 -6t52 -2
q44 0 83 5t69 13q4 2 12 5t12 5q36 14 59 32t23 40zM1404 464v52q0 -14 9 -27t27 -23l3 -3t9 -3q-12 2 -24 3t-24 1zM1378 420q80 0 135 -23t55 -53t-55 -52t-135 -22q-78 0 -133 22t-55 52q0 32 55 54t133 22zM1568 132v-22q0 -30 -55 -53t-135 -23q-78 0 -133 23t-55 53
v22q0 -10 7 -19t19 -19q6 -4 20 -11t28 -9q24 -4 53 -10t61 -6t61 3t53 13q4 2 8 2t8 2q26 10 43 24t17 30zM1568 164v-20q0 -32 -55 -54t-135 -22q-78 0 -133 22t-55 54v20q0 -10 7 -20t19 -18q6 -4 20 -10t28 -10q24 -6 53 -11t61 -5t61 4t53 12q4 2 8 2t8 2q26 10 43 24
t17 30zM1568 196v-20q0 -32 -55 -53t-135 -21q-78 0 -133 21t-55 53v20q0 -10 7 -20t19 -16q6 -4 20 -11t28 -11q24 -6 53 -10t61 -4t61 3t53 11q4 2 8 3t8 3q26 10 43 23t17 29zM1568 230v-20q0 -32 -55 -54t-135 -22q-78 0 -133 22t-55 54v20q0 -10 7 -18t19 -20
q6 -4 20 -10t28 -10q24 -6 53 -11t61 -5t61 4t53 12q4 0 8 1t8 3q26 10 43 24t17 30zM1568 264v-22q0 -32 -55 -54t-135 -22q-78 0 -133 22t-55 54v22q0 -10 7 -20t19 -20q6 -4 20 -10t28 -10q24 -6 53 -11t61 -5t61 3t53 13q4 2 8 3t8 3q26 6 43 22t17 32zM1568 294v-20
q0 -30 -55 -51t-135 -21q-78 0 -133 21t-55 51v20q0 -10 7 -18t19 -18q6 -4 20 -11t28 -11q24 -4 53 -9t61 -5t61 4t53 10q4 2 8 3t8 3q26 10 43 23t17 29zM1568 330v-22q0 -32 -55 -53t-135 -21q-78 0 -133 20t-55 54v22q0 -10 7 -20t19 -18q6 -6 20 -12t28 -10
q24 -6 53 -11t61 -5t61 4t53 12q4 2 8 3t8 1q26 10 43 25t17 31z" />
    <glyph glyph-name="tax_rule" unicode="&#xf036;" vert-adv-y="2046" 
d="M614 1254q50 0 91 19t73 51q30 32 47 76t17 102q0 54 -14 98t-44 74q-28 32 -68 46t-90 14q-52 0 -93 -15t-73 -49q-32 -32 -47 -78t-15 -104q0 -52 15 -93t41 -73q30 -32 70 -50t90 -18zM370 1792h800v-68h-22l-594 -936h90l526 824v-248q0 -30 9 -57t25 -49q-6 2 -15 2
h-19q-50 0 -92 -16t-74 -50q-30 -32 -46 -78t-16 -104q0 -52 16 -94t46 -74q28 -32 66 -47t88 -15t92 16t74 50q32 32 46 77t14 101q0 50 -11 89t-33 71q2 0 3 -1t5 -1h410v-1102q0 -34 -23 -58t-57 -24h-1308q-32 0 -56 24t-24 58v1628q0 34 23 58t57 24zM622 1646
q26 0 46 -11t34 -31q16 -18 24 -45t8 -61q0 -36 -9 -64t-23 -48q-16 -22 -36 -31t-46 -9t-47 9t-35 29t-22 47t-8 61t8 63t22 49q16 22 37 32t47 10zM1166 1170q26 0 46 -10t34 -30q16 -20 23 -47t7 -61q0 -36 -8 -64t-22 -48q-16 -20 -36 -30t-46 -10t-46 9t-34 29
q-18 20 -24 48t-6 62q0 36 8 62t22 46q14 24 35 34t47 10zM1246 1776l496 -514h-394q-20 0 -38 8t-34 24q-14 14 -22 31t-8 39v412z" />
    <glyph glyph-name="custom_field" unicode="&#xf037;" vert-adv-y="2046" 
d="M1568 1146v-502h-1300v502h1300zM1500 904q-6 28 -21 49t-35 35q-16 16 -41 21t-57 5q-40 0 -70 -13t-52 -37q-22 -22 -34 -54t-12 -76t12 -77t34 -57q22 -26 53 -36t67 -10q34 0 61 7t47 23t34 39t18 55l-90 16q-4 -20 -10 -33t-12 -19q-10 -8 -20 -12t-24 -4
q-16 0 -32 7t-22 19q-10 14 -15 36t-5 54q0 26 7 46t13 30q8 12 22 18t32 6q12 0 24 -4t18 -8q8 -6 13 -18t7 -26zM876 842q0 28 6 46t16 30q12 14 26 20t30 6t30 -6t24 -20q12 -14 17 -35t5 -51q0 -28 -5 -48t-17 -34q-10 -12 -23 -19t-27 -7q-24 0 -38 10t-26 30
q-10 10 -14 31t-4 47zM786 662h88v52q8 -20 22 -30t28 -16q10 -8 26 -11t30 -3q30 0 57 11t47 35t30 59t10 79q0 42 -10 74t-30 54q-22 26 -48 37t-58 11q-28 0 -54 -13t-46 -37v174h-92v-476zM610 826v-20q0 -12 -1 -25t-3 -17q-2 -10 -8 -18t-12 -12q-12 -10 -24 -13
t-24 -3q-10 0 -21 5t-15 11q-8 4 -12 14t-4 16q0 10 6 19t12 13t19 10t31 8q20 2 35 6t21 6zM486 900q4 12 11 21t13 13q6 6 16 8t22 2q16 0 29 -3t19 -7q8 -6 11 -16t3 -22v-12q-14 -2 -34 -9t-52 -11q-26 -4 -44 -10t-32 -10q-14 -10 -23 -19t-15 -21q-8 -8 -11 -22
t-3 -28q0 -20 8 -38t22 -32q18 -18 38 -24t46 -6q16 0 29 3t27 7q14 6 27 15t25 19v-5t2 -5q4 -12 6 -17t4 -9h90q-6 12 -10 23t-6 23q-4 10 -4 27v39v108q0 30 -4 50t-8 32q-4 10 -17 21t-27 17t-36 9t-54 3t-58 -6t-42 -18q-20 -12 -32 -31t-18 -45zM1460 592h140v640
h-140v54h334v-54h-140v-640h140v-58h-334v58zM1784 1324h-1520q-12 0 -21 -5t-19 -11q-6 -6 -10 -17t-4 -21v-746q0 -10 4 -21t10 -19q6 -6 17 -11t23 -5h1520q12 0 21 4t19 12q6 6 10 17t4 23v746q0 10 -4 20t-10 18q-6 6 -17 11t-23 5zM264 1406h1520q28 0 53 -11t45 -31
q18 -20 28 -43t10 -51v-746q0 -28 -11 -53t-27 -45q-18 -18 -44 -29t-54 -11h-1520q-28 0 -53 10t-45 30q-18 20 -28 44t-10 54v746q0 28 11 52t27 42q18 18 44 30t54 12z" />
    <glyph glyph-name="custom_field_group" unicode="&#xf038;" vert-adv-y="2046" 
d="M262 1004h1500q26 0 51 -10t43 -30q18 -18 28 -42t10 -52v-736q0 -28 -10 -52t-28 -40q-18 -18 -42 -30t-52 -12h-1500q-28 0 -52 11t-44 31q-18 18 -28 41t-10 51v736q0 28 11 52t27 42q18 20 43 30t53 10zM1762 924h-1500q-12 0 -20 -5t-18 -11q-6 -6 -11 -16t-5 -22
v-736q0 -12 3 -21t13 -17q6 -6 16 -11t22 -5h1500q10 0 20 3t16 13q6 6 11 17t5 21v736q0 12 -4 21t-12 17q-4 6 -15 11t-21 5zM1442 204h136v630h-136v52h330v-52h-138v-630h138v-56h-330v56zM482 506q4 12 11 21t11 13q8 4 17 7t21 3q18 0 31 -4t17 -8q6 -4 10 -14t4 -22
v-10q-12 -6 -35 -12t-55 -10q-22 -4 -40 -11t-30 -11t-24 -13t-16 -21q-6 -10 -8 -23t-2 -27q0 -24 7 -42t21 -32q14 -16 35 -22t47 -6q18 0 31 4t27 8q12 2 24 12t24 22q2 -2 2 -6t2 -8q0 -6 3 -13t5 -11h92q-8 14 -13 25t-7 21q-2 8 -2 26v40v104q0 28 -3 49t-7 31
q-8 14 -19 24t-25 14q-14 8 -36 12t-54 4q-34 0 -58 -7t-42 -19q-16 -10 -29 -28t-17 -42zM604 434v-18v-28t-2 -16q-8 -8 -13 -17t-11 -13q-12 -8 -23 -13t-23 -5q-8 0 -19 5t-17 11q-10 6 -12 16t-2 16q0 10 6 19t12 13q6 2 18 7t30 9t34 8t22 6zM778 270h84v50
q12 -14 23 -27t25 -19q16 -6 29 -9t27 -3q32 0 57 12t45 36q22 22 32 56t10 78q0 40 -10 74t-30 56q-24 20 -49 33t-57 13q-26 0 -51 -11t-45 -35v168h-90v-472zM866 448q0 26 5 45t15 31q12 14 26 20t30 6t29 -6t23 -20q12 -14 18 -34t6 -48q0 -30 -7 -51t-17 -35
q-8 -10 -21 -17t-27 -7q-20 0 -36 9t-26 29q-10 12 -14 32t-4 46zM1482 510q-6 28 -21 48t-33 34t-43 21t-55 7q-38 0 -70 -11t-54 -35q-20 -26 -31 -57t-11 -75t10 -77t32 -55q24 -24 55 -36t67 -12q34 0 60 8t46 24t33 38t19 54l-92 14q-2 -18 -8 -31t-12 -19
q-10 -8 -20 -11t-22 -3q-18 0 -32 7t-24 19t-16 33t-6 51q0 28 8 48t14 30q8 10 23 17t31 7q14 0 26 -4t18 -10t11 -16t7 -24zM1548 748v-492h-1282v492h1282zM286 1668h1500q28 0 52 -10t44 -28q18 -18 28 -42t10 -52v-582q-4 12 -13 23t-19 21t-22 19t-26 17v502
q0 10 -3 20t-13 16q-6 6 -16 11t-22 5h-1500q-10 0 -20 -4t-16 -12q-6 -4 -11 -15t-5 -21v-490l-20 -4t-22 -6q-10 -4 -19 -10t-19 -12v522q0 26 10 52t28 42q18 18 42 28t52 10zM1604 1050v448h-138v54h330v-54h-138v-448h-54zM508 1172q4 12 10 20t12 12q4 6 14 8t22 2
q20 0 32 -3t16 -7q8 -6 11 -15t3 -23v-12q-14 -2 -34 -9t-52 -11q-26 -4 -43 -10t-29 -10q-16 -6 -25 -15t-15 -21q-4 -6 -6 -14t-4 -14h-130v364h1282v-364h-62l-88 16q-2 -4 -2 -9t-2 -7h-126q-8 12 -9 28t-1 36q0 26 5 45t15 31q10 10 23 17t31 7q10 0 21 -5t17 -9
q12 -6 17 -15t7 -23l88 12q-8 30 -21 48t-31 32q-20 16 -44 23t-56 7q-40 0 -69 -13t-51 -37q-20 -20 -33 -53t-13 -77q0 -16 2 -29t4 -25h-64q4 14 5 29t1 29q0 44 -11 76t-31 54t-45 34t-57 12q-28 0 -53 -13t-45 -37v172h-92v-356h-86l2 102q0 30 -4 50t-8 32
q-6 10 -17 20t-25 16q-18 6 -39 10t-51 4q-34 0 -59 -6t-41 -18t-29 -30t-19 -44zM628 1098v-16v-20v-12h-118q2 6 6 11t8 7q6 4 18 8t32 8q18 4 33 8t21 6zM894 1114q0 26 4 44t16 32q10 12 23 18t29 6q18 0 32 -6t24 -20q12 -14 16 -34t4 -50q0 -16 -2 -30t-4 -24h-136
q-4 12 -5 28t-1 36z" />
    </font>
</defs>
</svg>
